Счастливый брак / A Good Marriage (Питер Эскин / Peter Askin) [2014, США, триллер, WEB-DLRip] VO (PashaUP) + Original Eng

Ответить на тему
 
Автор Сообщение

user ®

Стаж: 7 лет 7 месяцев

Сообщений: 20008

Пост Пост: #1 от 06-Окт-2014 21:25

[Цитировать]

Счастливый брак / A Good Marriage
Страна: США
Жанр: триллер
Год выпуска: 2014
Продолжительность: 01:41:33
Перевод: Одноголосый закадровый (PashaUP)
Cубтитры: нет
Оригинальная аудиодорожка: английский
Режиссер: Питер Эскин / Peter Askin
В ролях: Джоан Аллен, Энтони ЛаПалья, Кристен Коннолли, Стивен Лэнг, Майк О’Мэлли, Уилл Роджерс, Тео Стокман, Брэйди Брайсон, Джейсон Е. Теста, Грегг Майклс.
Описание: После 25 лет счастливого брака Дарси узнаёт зловещий секрет о своём муже. Как быть, если под угрозой не только семья, но и жизнь?
Сэмпл: https://yadi.sk/i/myfIQ7dzbqvuj
Качество видео: WEB-DLRip
Формат видео: AVI
Видео: XVid, 720x304 pixels (2.35:1), 23.976 fps, 1 599 Kbps
Аудио: MPEG Audio, 48.0 KHz, 2 channels, 128 Kbps
Аудио 2: AC-3, 48.0 KHz, 2 channels, 192 Kbps
MediaInfo
General
Complete name : D:\Downloads\A.Good.Marriage.2014.L1.WEBDLRip.1400Mb.avi
Format : AVI
Format/Info : Audio Video Interleave
File size : 1.37 GiB
Duration : 1h 41mn
Overall bit rate : 1 933 Kbps
Writing application : VirtualDubMod 1.5.10.3 | www.virtualdub-fr.org || (build 2550/release)
Writing library : VirtualDubMod build 2550/release
Video #0
ID : 0
Format : MPEG-4 Visual
Format profile : Advanced Simple@L5
Format settings, BVOP : 2
Format settings, QPel : Yes
Format settings, GMC : No warppoints
Format settings, Matrix : Default (MPEG)
Codec ID : XVID
Codec ID/Hint : XviD
Duration : 1h 41mn
Bit rate : 1 599 Kbps
Width : 720 pixels
Height : 304 pixels
Display aspect ratio : 2.35:1
Frame rate : 23.976 fps
Color space : YUV
Chroma subsampling : 4:2:0
Bit depth : 8 bits
Scan type : Progressive
Compression mode : Lossy
Bits/(Pixel*Frame) : 0.305
Stream size : 1.13 GiB (83%)
Writing library : XviD 1.2.1 (UTC 2008-12-04)
Audio #1
ID : 1
Format : MPEG Audio
Format version : Version 1
Format profile : Layer 3
Mode : Joint stereo
Mode extension : MS Stereo
Codec ID : 55
Codec ID/Hint : MP3
Duration : 1h 41mn
Bit rate mode : Constant
Bit rate : 128 Kbps
Channel(s) : 2 channels
Sampling rate : 48.0 KHz
Compression mode : Lossy
Stream size : 93.0 MiB (7%)
Alignment : Aligned on interleaves
Interleave, duration : 42 ms (1.00 video frame)
Interleave, preload duration : 504 ms
Audio #2
ID : 2
Format : AC-3
Format/Info : Audio Coding 3
Mode extension : CM (complete main)
Codec ID : 2000
Duration : 1h 41mn
Bit rate mode : Constant
Bit rate : 192 Kbps
Channel(s) : 2 channels
Channel positions : Front: L R
Sampling rate : 48.0 KHz
Bit depth : 16 bits
Compression mode : Lossy
Stream size : 139 MiB (10%)
Alignment : Split accross interleaves
Interleave, duration : 42 ms (1.00 video frame)
Interleave, preload duration : 500 ms
Скриншот c названием фильма Скриншоты
Скачать

Скачать торрент!

Как скачивать? · Что такое торрент? · Рейтинг и ограничения

Сайт не распространяет и не хранит электронные версии произведений, а лишь предоставляет доступ к создаваемому пользователями каталогу ссылок на торрент-файлы, которые содержат только списки хеш-сумм

[Профиль] [ЛС]
Показать сообщения:    
Ответить на тему

Текущее время: Сегодня 08:29

Часовой пояс: GMT + 4



Вы не можете начинать темы
Вы не можете отвечать на сообщения
Вы не можете редактировать свои сообщения
Вы не можете удалять свои сообщения
Вы не можете голосовать в опросах
Вы не можете прикреплять файлы к сообщениям
Вы не можете скачивать файлы