Пророк вне закона: Уоррен Джеффс / Outlaw Prophet: Warren Jeffs (Гэбриел Рэндж / Gabriel Ranged) [2014, США, драма, биография, WEB-DLRip] MVO (iTunes)

Ответить на тему
 
Автор Сообщение

user ®

Стаж: 7 лет 7 месяцев

Сообщений: 20008

Пост Пост: #1 от 06-Окт-2014 21:25

[Цитировать]

Пророк вне закона: Уоррен Джеффс / Outlaw Prophet: Warren Jeffs- -Страна: США / Sony Pictures Television
Жанр: драма, биография
Год выпуска: 2014
Продолжительность: 01:27:32
Перевод: Профессиональный (многоголосый закадровый) iTunes
Cубтитры: нет-Режиссер: Гэбриел Рэндж / Gabriel Ranged-В ролях: Дэвид Кит, Молли Паркер, Джои Кинг, Мартин Ландау, Сабина Гадеки, Бритт Робертсон, Алекс Найт, Дженни Гэбриэлль, Аарон МакФерсон, Брайан Чатлиен, Виктор Тэлмадж, Джейсон Дуглас, Эб Лоттимер, Уилл Бьюкэнэн-Описание: Основанная на реальных событиях драма о жизни скандально известного Джеффса Уоррена – многоженца, педофила, расиста и по совместительству экс-президента Фундаменталистской Церкви Иисуса Христа Святых Последних Дней. Продолжатель традиций мормонов и дела своего отца, в 2002 году Джеффс Уоррен возглавил церковь, а затем, четыре года спустя, и список наиболее разыскиваемых лиц ФБР. Почти два года за ним охотились власти, обвинившие Уоррена в насилии над несовершеннолетними, в том числе и в инцесте. 25 сентября 2007 года состоялся арест пророка – его приговорили к 10 годам тюрьмы, но затем приговор ужесточили: Уоррен получил пожизненное заключение, 20 лет сверху и штраф в 10 000 долларов.-Доп. информация: - -Качество видео: WEB-DLRip
Формат видео: AVI
Видео: 720x400, XviD, 1841 Кбит/с, 23.976 fps, 0.267 bit/pixel
Аудио: 48.0 kHz, AC3, 6 ch, 384 Кбит/с
MediaInfo
General
Complete name : D:\Torrents\Prorok.vne.zakona.2014.P.WEBDLRip.avi
Format : AVI
Format/Info : Audio Video Interleave
File size : 1.37 GiB
Duration : 1h 27mn
Overall bit rate : 2 235 Kbps
Writing application : VirtualDubMod 1.5.10.3 | www.virtualdub-fr.org || (build 2550/release)
Writing library : VirtualDubMod build 2550/release
Video #0
ID : 0
Format : MPEG-4 Visual
Format profile : Advanced Simple@L5
Format settings, BVOP : 2
Format settings, QPel : No
Format settings, GMC : No warppoints
Format settings, Matrix : Default (MPEG)
Codec ID : XVID
Codec ID/Hint : XviD
Duration : 1h 27mn
Bit rate : 1 842 Kbps
Width : 720 pixels
Height : 400 pixels
Display aspect ratio : 16:9
Frame rate : 23.976 fps
Color space : YUV
Chroma subsampling : 4:2:0
Bit depth : 8 bits
Scan type : Progressive
Compression mode : Lossy
Bits/(Pixel*Frame) : 0.267
Stream size : 1.13 GiB (82%)
Writing library : XviD 1.2.1 (UTC 2008-12-04)
Audio #1
ID : 1
Format : AC-3
Format/Info : Audio Coding 3
Mode extension : CM (complete main)
Format settings, Endianness : Big
Codec ID : 2000
Duration : 1h 27mn
Bit rate mode : Constant
Bit rate : 384 Kbps
Channel count : 6 channels
Channel positions : Front: L C R, Side: L R, LFE
Sampling rate : 48.0 KHz
Bit depth : 16 bits
Compression mode : Lossy
Stream size : 240 MiB (17%)
Alignment : Split accross interleaves
Interleave, duration : 42 ms (1.00 video frame)
Interleave, preload duration : 500 ms
Скриншот c названием фильма Скриншоты
Скачать

Скачать торрент!

Как скачивать? · Что такое торрент? · Рейтинг и ограничения

Сайт не распространяет и не хранит электронные версии произведений, а лишь предоставляет доступ к создаваемому пользователями каталогу ссылок на торрент-файлы, которые содержат только списки хеш-сумм

[Профиль] [ЛС]
Показать сообщения:    
Ответить на тему

Текущее время: Сегодня 08:41

Часовой пояс: GMT + 4



Вы не можете начинать темы
Вы не можете отвечать на сообщения
Вы не можете редактировать свои сообщения
Вы не можете удалять свои сообщения
Вы не можете голосовать в опросах
Вы не можете прикреплять файлы к сообщениям
Вы не можете скачивать файлы