Москва - Лопушки (Юрий Морозов) [2014, Мелодрама, HDTVRip]

Ответить на тему
 
Автор Сообщение

user ®

Стаж: 7 лет 7 месяцев

Сообщений: 20008

Пост Пост: #1 от 06-Окт-2014 18:15

[Цитировать]

Москва - Лопушки
Жанр: Мелодрама
Год выпуска: 2014
Продолжительность: 01:27:21
Режиссёр: Юрий Морозов
В ролях: Анастасия Задорожная, Алла Юганова, Виталий Альшанский, Елена Мольченко, Дмитрий Наумов, Александр Волков, Лилия Хасанова
Описание: Две сестры — две полные противоположности. Полина — городская «фифа», работающая в крупном книжном издательстве. Маша — деревенская простушка, которая целыми днями возится в огороде, готовя на продажу заезжающим коммерсантам фермерские продукты. Жених Полины — ее босс, видный бизнесмен. Ухажер Маши — Вася, работяга и рубаха-парень. Все меняется в одночасье, когда в издательство к Полине заявляется жена ее босса, с которой он все как-то забывал развестись, и разом лишает Полину и жениха, и работы. Машина тихая жизнь в Лопушках круто переворачивается, когда скупщики продуктов ставят деревенским условие: либо селяне вдвое снижают цены, либо у них вообще не будут ничего покупать. Маша и Полина меняются местами: Полина мчится в деревню зализывать любовные раны, Маша рвется в Москву самостоятельно налаживать поставку продукции в город, чтобы не прогореть на процентах от посредников. Попадая в совершенно новые условия, каждая из девушек имеет возможность по-новому взглянуть на свою жизнь и проявить себя. У рафинированной Полины на деревенской почве открывается второе дыхание, она строит планы по реконструкции старинной усадьбы и налаживает эко-туризм в Лопушки. Да и Маша оказывается не лыком шита: со свойственной ей хозяйственностью и практической хваткой она выбивает павильон для лопушковской продукции на московском рынке.
Сэмпл: http://multi-up.com/1004234
Качество видео: HDTVRip
Формат видео: AVI
Видео: 720x400 (16:9), 25.000 fps, XviD 73 ~1995 kbps avg, 0.277 bit/pixel
Аудио: 48 kHz, AC-3, 2 ch, ~192 kbps
MediaInfo
General
Complete name : F:\Download\Moskva-Lopushki.avi
Format : AVI
Format/Info : Audio Video Interleave
File size : 1.36 GiB
Duration : 1h 28mn
Overall bit rate : 2 197 Kbps
Writing application : VirtualDubMod 1.5.10.3 | www.virtualdub-fr.org || (build 2550/release)
Writing library : VirtualDubMod build 2550/release
Video
ID : 0
Format : MPEG-4 Visual
Format profile : Advanced Simple@L5
Format settings, BVOP : 1
Format settings, QPel : No
Format settings, GMC : No warppoints
Format settings, Matrix : Custom
Codec ID : XVID
Codec ID/Hint : XviD
Duration : 1h 28mn
Bit rate : 1 995 Kbps
Width : 720 pixels
Height : 400 pixels
Display aspect ratio : 16:9
Frame rate : 25.000 fps
Color space : YUV
Chroma subsampling : 4:2:0
Bit depth : 8 bits
Scan type : Progressive
Compression mode : Lossy
Bits/(Pixel*Frame) : 0.277
Stream size : 1.24 GiB (91%)
Writing library : XviD 73
Audio
ID : 1
Format : AC-3
Format/Info : Audio Coding 3
Mode extension : CM (complete main)
Format settings, Endianness : Big
Codec ID : 2000
Duration : 1h 28mn
Bit rate mode : Constant
Bit rate : 192 Kbps
Channel(s) : 2 channels
Channel positions : Front: L R
Sampling rate : 48.0 KHz
Bit depth : 16 bits
Compression mode : Lossy
Stream size : 122 MiB (9%)
Alignment : Split accross interleaves
Interleave, duration : 40 ms (1.00 video frame)
Interleave, preload duration : 500 ms
Скриншот c названием фильма Скриншоты
Скачать

Скачать торрент!

Как скачивать? · Что такое торрент? · Рейтинг и ограничения

Сайт не распространяет и не хранит электронные версии произведений, а лишь предоставляет доступ к создаваемому пользователями каталогу ссылок на торрент-файлы, которые содержат только списки хеш-сумм

[Профиль] [ЛС]
Показать сообщения:    
Ответить на тему

Текущее время: Сегодня 04:12

Часовой пояс: GMT + 4



Вы не можете начинать темы
Вы не можете отвечать на сообщения
Вы не можете редактировать свои сообщения
Вы не можете удалять свои сообщения
Вы не можете голосовать в опросах
Вы не можете прикреплять файлы к сообщениям
Вы не можете скачивать файлы