Одержимость Майкла Кинга / The Possession of Michael King (Дэвид Юнг / David Jung) [2014, США, ужасы, HDRip] DVO (lord666 & Miori)

Ответить на тему
 
Автор Сообщение

user ®

Стаж: 7 лет 7 месяцев

Сообщений: 20008

Пост Пост: #1 от 06-Окт-2014 05:05

[Цитировать]

Одержимость Майкла Кинга / The Possession of Michael King
Страна: США
Жанр: ужасы
Год выпуска: 2014
Продолжительность: 01:23:34
Перевод: Любительский (двухголосый закадровый) lord666 & Miori
Cубтитры: нет
Режиссер: Дэвид Юнг / David Jung
В ролях: Шэйн Джонсон, Элла Андерсон, Кара Пифко, Кристал Альварез, Томас Арана, Люк Бэйнс, Дейл Дикки, Каллен Дуглас, Майкл Рэй Эскамиллья, Рамона Дж. Фаррингтон
Описание: Главный герой фильма — режиссер-документалист, который не верит ни в Бога, ни в дьявола. Когда умирает его жена, он решает снять фильм о религии и спиритуализме и доказать, что вся мистика — это просто выдумка. В процессе съемок он встречается с демонологами, некромантами и оккультистами, которые испытывают на нем самые темные и сильные заклятия. Эти обряды пробуждают неведомые и безудержные силы зла…
Сэмпл: http://multi-up.com/1004080
Качество видео: HDRip
Формат видео: AVI
Видео: Xvid, 720x400, 16:9, 23,976 кадра/сек, 2077 Кбит/сек
Аудио: AC-3, 48,0 КГц, 384 Кбит/сек, 6 каналов
MediaInfo
Общее
Полное имя : D:\фильмы.avi\uploaded\King\The.Possession.of.Michael.King.2014.DVO.lord666&Miori.avi
Формат : AVI
Формат/Информация : Audio Video Interleave
Размер файла : 1,44 Гбайт
Продолжительность : 1 ч. 23 м.
Общий поток : 2470 Кбит/сек
Программа кодирования : VirtualDubMod 1.5.10.2 (build 2540/release)
Библиотека кодирования : VirtualDubMod build 2540/release
Видео
Идентификатор : 0
Формат : MPEG-4 Visual
Профиль формата : Advanced Simple@L5
Параметр BVOP формата : 2
Параметр QPel формата : Нет
Параметр GMC формата : Без точки перехода
Параметр матрицы формата : Default (MPEG)
Идентификатор кодека : XVID
Идентификатор кодека/Подсказка : XviD
Продолжительность : 1 ч. 23 м.
Битрейт : 2077 Кбит/сек
Ширина : 720 пикселей
Высота : 400 пикселей
Соотношение сторон : 16:9
Частота кадров : 23,976 кадра/сек
Цветовое пространство : YUV
Субдискретизация насыщенности : 4:2:0
Битовая глубина : 8 бит
Тип развёртки : Прогрессивная
Метод сжатия : С потерями
Бит/(Пиксели*Кадры) : 0.301
Размер потока : 1,21 Гбайт (84%)
Библиотека кодирования : XviD 1.2.1 (UTC 2008-12-04)
Аудио
Идентификатор : 1
Формат : AC-3
Формат/Информация : Audio Coding 3
Расширение режима : CM (complete main)
Параметр Endianness формата : Big
Идентификатор кодека : 2000
Продолжительность : 1 ч. 23 м.
Вид битрейта : Постоянный
Битрейт : 384 Кбит/сек
Каналы : 6 каналов
Расположение каналов : Front: L C R, Side: L R, LFE
Частота : 48,0 КГц
Битовая глубина : 16 бит
Метод сжатия : С потерями
Размер потока : 229 Мбайт (16%)
Выравнивание : Разделение по промежуткам
Продолжительность промежутка : 42 мс. (1,00 видеокадр)
Время предзагрузки промежутка : 500 мс.
Скриншот c названием фильма Скриншоты
Скачать

Скачать торрент!

Как скачивать? · Что такое торрент? · Рейтинг и ограничения

Сайт не распространяет и не хранит электронные версии произведений, а лишь предоставляет доступ к создаваемому пользователями каталогу ссылок на торрент-файлы, которые содержат только списки хеш-сумм

[Профиль] [ЛС]
Показать сообщения:    
Ответить на тему

Текущее время: Сегодня 18:11

Часовой пояс: GMT + 4



Вы не можете начинать темы
Вы не можете отвечать на сообщения
Вы не можете редактировать свои сообщения
Вы не можете удалять свои сообщения
Вы не можете голосовать в опросах
Вы не можете прикреплять файлы к сообщениям
Вы не можете скачивать файлы