Столкновение звезд / Сокрушитель Звезд / StarCrash (Луиджи Коцци / Luigi Cozzi) [1978, США, Италия, фантастика, фэнтези, приключения, BDRemux 1080p] VO (В.Рутилов) + VO (Slavnus Spacedust) + Sub Rus + Original Eng + 2x Commentary

Ответить на тему
 
Автор Сообщение

user ®

Стаж: 7 лет 7 месяцев

Сообщений: 20008

Пост Пост: #1 от 05-Окт-2014 22:45

[Цитировать]

Столкновение звезд / Сокрушитель Звезд / StarCrash
Страна: США, Италия
Жанр: фантастика, фэнтези, приключения
Год выпуска: 1978
Продолжительность: 01:31:39
Перевод 1: Одноголосый закадровый В.Рутилов
Перевод 2: Одноголосый закадровый Slavnus Spacedust
Cубтитры: русские (Тимур Дорофеев)
Оригинальная аудиодорожка: английский
-
Режиссер: Луиджи Коцци / Luigi Cozzi
В ролях: Марджо Гортнер, Кэролайн Манро, Кристофер Пламмер, Дэвид Хассельхофф, Роберт Тессьер, Джо Спинелл, Надя Кассини, Джудд Хэмилтон, Хэмилтон Кэмп, Сальваторе Баккаро
-
Описание: Два галактических контрабандиста, Стелла Стар и Актон, сосланные на каторгу, освобождены, чтобы сражаться против злого захватчика Зарта Арна, который обладает разрушительной космической станцией. Сначала они должны отыскать пропавшего сына императора Галактики. В конце концов, с помощью преданного робота, им удается одержать победу...

Тип релиза: BDRemux 1080p
Контейнер: MKV
Видео: MPEG-4 AVC / NTSC 16:9 / 1920x1080 (1,78:1) / 15353 kbps / 23,976 fps / High@L4.1
Аудио 1: Russian / AC3 / 48 kHz / 5.1 Ch / 384 kbps / 16 bit / VO / В.Рутилов
Аудио 2: Russian / AC3 / 48 kHz / 5.1 Ch / 448 kbps / 16 bit / VO / Slavnus Spacedust
Аудио 3: English / DTS-HD Master Audio / 2429 kbps / 5.1 Ch / 48 kHz / 2429 kbps / 24-bit (DTS Core: 5.1 Ch / 48 kHz / 1509 kbps / 24-bit) / Original
Аудио 4: English / AC3 / 48 kHz / 2 Ch / 192 kbps / 16 bit / Commentary#1
Аудио 5: English / AC3 / 48 kHz / 2 Ch / 192 kbps / 16 bit / Commentary#2
Формат субтитров: softsub (SRT)
Навигация по главам: есть

Сэмпл MediaInfo
Общее
Уникальный идентификатор : 182363765459974853472437306293472898321 (0x8931FBD19AB2AB84AA623E2AF9FEAD11)
Полное имя : D:\StarCrash.1978.BDRemux.1080p.mkv
Формат : Matroska
Версия формата : Version 4 / Version 2
Размер файла : 12,2 Гбайт
Продолжительность : 1 ч. 31 м.
Режим общего битрейта : Переменный
Общий поток : 19,0 Мбит/сек
Дата кодирования : UTC 2014-10-04 04:54:21
Программа кодирования : mkvmerge v7.2.0 ('On Every Street') 64bit built on Sep 13 2014 15:52:10
Библиотека кодирования : libebml v1.3.0 + libmatroska v1.4.1
DURATION : 01:30:12.560000000
NUMBER_OF_FRAMES : 734
NUMBER_OF_BYTES : 43822
_STATISTICS_WRITING_APP : mkvmerge v7.2.0 ('On Every Street') 64bit built on Sep 13 2014 15:52:10
_STATISTICS_WRITING_DATE_UTC : 2014-10-04 04:54:21
_STATISTICS_TAGS : BPS DURATION NUMBER_OF_FRAMES NUMBER_OF_BYTES
Видео
Идентификатор : 1
Формат : AVC
Формат/Информация : Advanced Video Codec
Профиль формата : High@L4.1
Параметр CABAC формата : Да
Параметр ReFrames формата : 3 кадра
Параметр GOP формата : M=3, N=12
Идентификатор кодека : V_MPEG4/ISO/AVC
Продолжительность : 1 ч. 31 м.
Вид битрейта : Переменный
Максимальный битрейт : 35,0 Мбит/сек
Ширина : 1920 пикселей
Высота : 1080 пикселей
Соотношение сторон : 16:9
Режим частоты кадров : Постоянный
Частота кадров : 23,976 кадра/сек
Стандарт вещания : NTSC
Цветовое пространство : YUV
Субдискретизация насыщенности : 4:2:0
Битовая глубина : 8 бит
Тип развёртки : Прогрессивная
Язык : English
Default : Да
Forced : Нет
Основные цвета : BT.709
Характеристики трансфера : BT.709
Коэффициенты матрицы : BT.709
Аудио #1
Идентификатор : 2
Формат : AC-3
Формат/Информация : Audio Coding 3
Расширение режима : CM (complete main)
Параметр Endianness формата : Big
Идентификатор кодека : A_AC3
Продолжительность : 1 ч. 31 м.
Вид битрейта : Постоянный
Битрейт : 384 Кбит/сек
Каналы : 6 каналов
Расположение каналов : Front: L C R, Side: L R, LFE
Частота : 48,0 КГц
Битовая глубина : 16 бит
Метод сжатия : С потерями
Размер потока : 252 Мбайт (2%)
Заголовок : VO / В.Рутилов
Язык : Russian
Default : Да
Forced : Нет
Аудио #2
Идентификатор : 3
Формат : AC-3
Формат/Информация : Audio Coding 3
Расширение режима : CM (complete main)
Параметр Endianness формата : Big
Идентификатор кодека : A_AC3
Продолжительность : 1 ч. 31 м.
Вид битрейта : Постоянный
Битрейт : 448 Кбит/сек
Каналы : 6 каналов
Расположение каналов : Front: L C R, Side: L R, LFE
Частота : 48,0 КГц
Битовая глубина : 16 бит
Метод сжатия : С потерями
Размер потока : 294 Мбайт (2%)
Заголовок : VO / Slavnus Spacedust
Язык : Russian
Default : Нет
Forced : Нет
Аудио #3
Идентификатор : 4
Формат : DTS
Формат/Информация : Digital Theater Systems
Профиль формата : MA / Core
Режим : 16
Параметр Endianness формата : Big
Идентификатор кодека : A_DTS
Продолжительность : 1 ч. 31 м.
Вид битрейта : Переменный
Битрейт : Неизвестно / 1509 Кбит/сек
Каналы : 6 каналов
Расположение каналов : Front: L C R, Side: L R, LFE
Частота : 48,0 КГц
Битовая глубина : 24 бит
Метод сжатия : Без потерь / Lossy
Заголовок : Original
Язык : English
Default : Нет
Forced : Нет
Аудио #4
Идентификатор : 5
Формат : AC-3
Формат/Информация : Audio Coding 3
Расширение режима : CM (complete main)
Параметр Endianness формата : Big
Идентификатор кодека : A_AC3
Продолжительность : 1 ч. 31 м.
Вид битрейта : Постоянный
Битрейт : 192 Кбит/сек
Каналы : 2 канала
Расположение каналов : Front: L R
Частота : 48,0 КГц
Битовая глубина : 16 бит
Метод сжатия : С потерями
Размер потока : 126 Мбайт (1%)
Заголовок : Commentary#1
Язык : English
Default : Нет
Forced : Нет
Аудио #5
Идентификатор : 6
Формат : AC-3
Формат/Информация : Audio Coding 3
Расширение режима : CM (complete main)
Параметр Endianness формата : Big
Идентификатор кодека : A_AC3
Продолжительность : 1 ч. 31 м.
Вид битрейта : Постоянный
Битрейт : 192 Кбит/сек
Каналы : 2 канала
Расположение каналов : Front: L R
Частота : 48,0 КГц
Битовая глубина : 16 бит
Метод сжатия : С потерями
Размер потока : 126 Мбайт (1%)
Заголовок : Commentary#2
Язык : English
Default : Нет
Forced : Нет
Текст
Идентификатор : 7
Формат : UTF-8
Идентификатор кодека : S_TEXT/UTF8
Идентификатор кодека/Информация : UTF-8 Plain Text
Заголовок : Тимур Дорофеев
Язык : Russian
Default : Нет
Forced : Нет
Меню
00:00:00.000 : en:
00:04:28.685 : en:
00:12:43.721 : en:
00:17:24.043 : en:
00:22:34.144 : en:
00:33:18.204 : en:
00:45:47.745 : en:
00:53:05.140 : en:
01:00:20.199 : en:
01:10:19.798 : en:
01:21:27.340 : en:
01:29:07.842 : en:
Скриншоты
Скачать

Скачать торрент!

Как скачивать? · Что такое торрент? · Рейтинг и ограничения

Сайт не распространяет и не хранит электронные версии произведений, а лишь предоставляет доступ к создаваемому пользователями каталогу ссылок на торрент-файлы, которые содержат только списки хеш-сумм

[Профиль] [ЛС]
Показать сообщения:    
Ответить на тему

Текущее время: Сегодня 09:55

Часовой пояс: GMT + 4



Вы не можете начинать темы
Вы не можете отвечать на сообщения
Вы не можете редактировать свои сообщения
Вы не можете удалять свои сообщения
Вы не можете голосовать в опросах
Вы не можете прикреплять файлы к сообщениям
Вы не можете скачивать файлы