Наперекор себе / I Against I (Марк Криппс / Mark Cripps, Дэвид Эллисон / David Ellison, Джеймс Маркванд / James Marquand) [2012, Великобритания, триллер, криминал, HDTV 1080i] MVO

Ответить на тему
 
Автор Сообщение

user ®

Стаж: 7 лет 7 месяцев

Сообщений: 20008

Пост Пост: #1 от 05-Окт-2014 22:45

[Цитировать]

Наперекор себе / I Against I«Two Men, 12 Hours, One Must Die !!» Страна: Великобритания
Жанр: триллер, криминал
Год выпуска: 2012
Продолжительность: 01:18:21
Перевод: Профессиональный (многоголосый закадровый)
Cубтитры: нет
Режиссер: Марк Криппс, Дэвид Эллисон, Джеймс Маркванд / Mark Cripps, David Ellison, James Marquand
В ролях: Кенни Даути, Ингвар Эггерт Сигурдссон, Марк Вомак, Джон Касл, Роберт Шеннон, Эпи Тайоне и др.
Описание: Выйдя из офиса, главный герой замечает, что за ним следит какой-то незнакомец. С этого момента и начинается игра на выживание. Двое мужчин. 12 часов. И только один сможет выжить.
Доп. информация:
В DVB здесь [url=http://***/forum/viewtopic.php?t=4751217]http://***/forum/viewtopic.php?t=4751217[/url]
Сэмпл: http://rusfolder.com/41902762

Тип релиза: HDTV 1080i
Контейнер: TS
Видео: AVC/H.264, PAL, 1920х1080 (16:9), 25 fps, 4272 kbps
Аудио: русский, MP-2, 48000 Hz, 192 Кбит/сек, 2 ch
MediaInfo
Общее
Идентификатор : 1 (0x1)
Полное имя : D:\Наперекор себе0.ts
Формат : MPEG-TS
Размер файла : 2,57 Гбайт
Продолжительность : 1 ч. 18 м.
Режим общего битрейта : Переменный
Общий поток : 4698 Кбит/сек
Максимальный общий битрейт : 35,5 Мбит/сек
Видео
Идентификатор : 4113 (0x1011)
Идентификатор меню : 1 (0x1)
Формат : AVC
Формат/Информация : Advanced Video Codec
Профиль формата : Main@L4.0
Параметр CABAC формата : Да
Параметр ReFrames формата : 3 кадра
Идентификатор кодека : 27
Продолжительность : 1 ч. 18 м.
Вид битрейта : Переменный
Битрейт : 4272 Кбит/сек
Максимальный битрейт : 40,0 Мбит/сек
Ширина : 1920 пикселей
Высота : 1080 пикселей
Соотношение сторон : 16:9
Частота кадров : 25,000 кадров/сек
Стандарт вещания : Component
Цветовое пространство : YUV
Субдискретизация насыщенности : 4:2:0
Битовая глубина : 8 бит
Тип развёртки : Чересстрочная
Порядок развёртки : Верхнее поле первое
Бит/(Пиксели*Кадры) : 0.082
Размер потока : 2,34 Гбайт (91%)
Аудио
Идентификатор : 4352 (0x1100)
Идентификатор меню : 1 (0x1)
Формат : MPEG Audio
Версия формата : Version 1
Профиль формата : Layer 2
Идентификатор кодека : 4
Продолжительность : 1 ч. 18 м.
Вид битрейта : Постоянный
Битрейт : 192 Кбит/сек
Каналы : 2 канала
Частота : 48,0 КГц
Метод сжатия : С потерями
Размер потока : 108 Мбайт (4%)
Язык : Russian
Скриншот c названием фильма Скриншоты
Скачать

Скачать торрент!

Как скачивать? · Что такое торрент? · Рейтинг и ограничения

Сайт не распространяет и не хранит электронные версии произведений, а лишь предоставляет доступ к создаваемому пользователями каталогу ссылок на торрент-файлы, которые содержат только списки хеш-сумм

[Профиль] [ЛС]
Показать сообщения:    
Ответить на тему

Текущее время: Сегодня 14:13

Часовой пояс: GMT + 4



Вы не можете начинать темы
Вы не можете отвечать на сообщения
Вы не можете редактировать свои сообщения
Вы не можете удалять свои сообщения
Вы не можете голосовать в опросах
Вы не можете прикреплять файлы к сообщениям
Вы не можете скачивать файлы