Гангста Love / Rob the Mob (Рэймонд Де Фелитта / Raymond De Felitta) [2014 г., США, драма, криминал, BDRip] Dub

Ответить на тему
 
Автор Сообщение

user ®

Стаж: 7 лет 7 месяцев

Сообщений: 20008

Пост Пост: #1 от 05-Окт-2014 12:20

[Цитировать]

Гангста LoveRob the Mob-«Настоящая любовь. Легендарное ограбление»- Год выпуска: 2014
Страна: США-Жанр: драма, криминал
Продолжительность: 01:44:11
Перевод: Профессиональный (полное дублирование)
Субтитры: нет-Режиссер: Рэймонд Де Фелитта / Raymond De Felitta
Сценарий: Джонатан Фернандез / Jonathan Fernandez
Продюсер: Уильям Тейтлер / William Teitler, Линн Эппелл / Lynn Appelle, Ричард Эткинсон / Richard Atkinson, Рэймонд Де Фелитта / Raymond De Felitta, Джонатан Фернандез / Jonathan Fernandez
Оператор: Крис Норр / Chris Norr
Композитор: Стивен Эндельман / Stephen Endelman-В ролях: Майкл Питт (Tommy Uva), Нина Арианда (Rosie), Энди Гарсиа (Big Al), Рэй Романо (Jerry Cardozo), Гриффин Данн (Dave Lovell), Майкл Рисполи (Sal), Юл Васкес (Vinny Gorgeous), Фрэнк Уэйли (Agent Frank Hurd), Брайан Тарантина (Ronnie), Аида Туртурро (Anna), Мэттью Блумм (Marco), Самира Уайли (Agent Annie Bell)
Дублёры: Антон Савенков (Tommy Uva), Жанна Никонова (Rosie), Станислав Стрелков (Big Al), Александр Белый, Александр Воронов, Алексей Шадхин, Владимир Рыбальченко, Исмаил Зиядзаде, Павел Кипнис, Сергей Казаков, Татьяна Шарко, Ольга Голованова (Constance Uva)-Описание: Парочка молодых влюбленных, мечтая скопить деньги на свадьбу, решает совершить серию дерзких ограблений клубов, где собираются мафиози. Их план прост - чтобы они ни натворили, мафия не будет жаловаться в полицию. Местные «братаны» не могут поверить своим глазам, когда их обчищают до нитки какие-то «сопляки». Больше того, случайно, у них похищают важную улику, которой очень интересуется ФБР. Теперь за налетчиками начинается настоящая охота...-kinopoisk.ru: 6.611 (2328)
imdb.com: 6.30 (4304)
MPAA: R - Лицам до 17 лет обязательно присутствие взрослого-Качество: BDRip / [url=http://***/forum/viewtopic.php?t=4790507]BDRemux[/url]
Контейнер: AVI
Видео: 704x400 (1.76:1), 23.976 fps, XviD build 65 ~1543 kbps avg, 0.23 bit/pixel
Аудио: 48 kHz, AC3 Dolby Digital, 3/2 (L,C,R,l,r) + LFE ch, ~448 kbps-Сравнение
[url=http://***/forum/viewtopic.php?t=4754277]http://***/forum/viewtopic.php?t=4754277[/url] http://screenshotcomparison.com/comparison/94279
Наполнение конечно больше, но картинка сыпется и звук 2-канальный.
-
MediaInfo
General
Complete name                            : E:\Рипы\Rob.the.Mob.2014.BDRip.Dub.All.Films.avi
Format                                   : AVI
Format/Info                              : Audio Video Interleave
File size                                : 1.46 GiB
Duration                                 : 1h 44mn
Overall bit rate                         : 2 001 Kbps
Movie name                               : Rob.the.Mob.2014.BDRip.Dub.All.Films
Director                                 : DIABLO93
Genre                                    : Crime/Drama
Writing application                      : VirtualDubMod 1.5.10.3 | www.virtualdub-fr.org || (build 2550/release)
Original source form/Name                : Movie
Copyright                                : *** (R.G. All Films)
Video
ID                                       : 0
Format                                   : MPEG-4 Visual
Format profile                           : Advanced Simple@L5
Format settings, BVOP                    : 2
Format settings, QPel                    : No
Format settings, GMC                     : No warppoints
Format settings, Matrix                  : Custom
Codec ID                                 : XVID
Codec ID/Hint                            : XviD
Duration                                 : 1h 44mn
Bit rate                                 : 1 544 Kbps
Width                                    : 704 pixels
Height                                   : 400 pixels
Display aspect ratio                     : 16:9
Frame rate                               : 23.976 fps
Color space                              : YUV
Chroma subsampling                       : 4:2:0
Bit depth                                : 8 bits
Scan type                                : Progressive
Compression mode                         : Lossy
Bits/(Pixel*Frame)                       : 0.229
Stream size                              : 1.12 GiB (77%)
Writing library                          : XviD 65
Audio
ID                                       : 1
Format                                   : AC-3
Format/Info                              : Audio Coding 3
Mode extension                           : CM (complete main)
Format settings, Endianness              : Big
Codec ID                                 : 2000
Duration                                 : 1h 44mn
Bit rate mode                            : Constant
Bit rate                                 : 448 Kbps
Channel(s)                               : 6 channels
Channel positions                        : Front: L C R, Side: L R, LFE
Sampling rate                            : 48.0 KHz
Bit depth                                : 16 bits
Compression mode                         : Lossy
Stream size                              : 334 MiB (22%)
Alignment                                : Split accross interleaves
Interleave, duration                     : 42 ms (1.00 video frame)
Interleave, preload duration             : 500 ms

-
Сэмпл Скриншоты Релиз группы:
[url=http://***/forum/viewtopic.php?t=1677970] [/url]
-
Скачать

Скачать торрент!

Как скачивать? · Что такое торрент? · Рейтинг и ограничения

Сайт не распространяет и не хранит электронные версии произведений, а лишь предоставляет доступ к создаваемому пользователями каталогу ссылок на торрент-файлы, которые содержат только списки хеш-сумм

[Профиль] [ЛС]
Показать сообщения:    
Ответить на тему

Текущее время: Сегодня 17:32

Часовой пояс: GMT + 4



Вы не можете начинать темы
Вы не можете отвечать на сообщения
Вы не можете редактировать свои сообщения
Вы не можете удалять свои сообщения
Вы не можете голосовать в опросах
Вы не можете прикреплять файлы к сообщениям
Вы не можете скачивать файлы