Сигнал / The Signal (Уильям Юбэнк / William Eubank) [2014, США, фантастика, триллер, HDRip] AVO (Ю. Немахов)

Ответить на тему
 
Автор Сообщение

user ®

Стаж: 7 лет 7 месяцев

Сообщений: 20008

Пост Пост: #1 от 05-Окт-2014 12:20

[Цитировать]

СигналThe Signal«R U Agitated?»- Страна: США
Жанр: фантастика, триллер
Год выпуска: 2014
Продолжительность: 01:37:11-Перевод: Авторский (Немахов Юрий)
Субтитры: нет
Режиссер: Уильям Юбэнк / William Eubank
В ролях: Лоренс Фишбёрн, Патрик Дэвидсон, Брентон Туэйтс, Оливия Кук, Бо Напп, Джеффри Гроувер, Рой Кенни, Тимоти Холмс, Рикардо Кампос, Дрю Сайкес-Описание: Трое студентов-хакеров неожиданно начинают получать таинственные сообщения от незнакомца под ником NOMAD (Кочевник). Но они даже не подозревают, что имеют дело не с человеком, а с сигналами внеземного разума.
После серии необъяснимых происшествий друзья бегут из опасной ловушки, но тут же становятся объектами охоты «людей в чёрном», которые считают, что после контакта хакеры могут представлять угрозу для всего человечества.-
MPAA: PG-13 - Детям до 13 лет просмотр не желателен-Качество: HDRip | BDRip 720p | sample
Контейнер: AVI
Видео: XviD, 720x304 (2.35:1), 1687 kbps, 23,976 fps, 0,322 bpp
Аудио: AC3 / 5.1 / 48 kHz / 448 kbps / 16 bit-Скриншоты Media Info
General
Complete name : C:\my_rip\The.Signal.2014.HDRip.by.Дядя_Лёша.avi
Format : AVI
Format/Info : Audio Video Interleave
File size : 1.46 GiB
Duration : 1h 37mn
Overall bit rate : 2 145 Kbps
Writing application : VirtualDubMod 1.5.10.3 | www.virtualdub-fr.org || (build 2550/release)
Writing library : VirtualDubMod build 2550/release
Video
ID : 0
Format : MPEG-4 Visual
Format profile : Advanced Simple@L5
Format settings, BVOP : 1
Format settings, QPel : No
Format settings, GMC : No warppoints
Format settings, Matrix : Custom
Codec ID : XVID
Codec ID/Hint : XviD
Duration : 1h 37mn
Bit rate : 1 687 Kbps
Width : 720 pixels
Height : 304 pixels
Display aspect ratio : 2.35:1
Frame rate : 23.976 fps
Color space : YUV
Chroma subsampling : 4:2:0
Bit depth : 8 bits
Scan type : Progressive
Compression mode : Lossy
Bits/(Pixel*Frame) : 0.322
Stream size : 1.15 GiB (79%)
Writing library : XviD 73
Audio
ID : 1
Format : AC-3
Format/Info : Audio Coding 3
Mode extension : CM (complete main)
Codec ID : 2000
Duration : 1h 37mn
Bit rate mode : Constant
Bit rate : 448 Kbps
Channel(s) : 6 channels
Channel positions : Front: L C R, Side: L R, LFE
Sampling rate : 48.0 KHz
Bit depth : 16 bits
Compression mode : Lossy
Stream size : 311 MiB (21%)
Alignment : Split accross interleaves
Interleave, duration : 42 ms (1.00 video frame)
Interleave, preload duration : 500 ms
Скачать

Скачать торрент!

Как скачивать? · Что такое торрент? · Рейтинг и ограничения

Сайт не распространяет и не хранит электронные версии произведений, а лишь предоставляет доступ к создаваемому пользователями каталогу ссылок на торрент-файлы, которые содержат только списки хеш-сумм

[Профиль] [ЛС]
Показать сообщения:    
Ответить на тему

Текущее время: Сегодня 17:43

Часовой пояс: GMT + 4



Вы не можете начинать темы
Вы не можете отвечать на сообщения
Вы не можете редактировать свои сообщения
Вы не можете удалять свои сообщения
Вы не можете голосовать в опросах
Вы не можете прикреплять файлы к сообщениям
Вы не можете скачивать файлы