Агнец Божий / Paradise (Диабло Коуди / Diablo Cody) [2013, США, драма, комедия, HDTV 1080i] MVO + Original Eng

Ответить на тему
 
Автор Сообщение

user ®

Стаж: 7 лет 7 месяцев

Сообщений: 20008

Пост Пост: #1 от 04-Окт-2014 23:00

[Цитировать]

Агнец Божий / Paradise
Страна: США
Студия: Mandate Pictures
Жанр: драма, комедия
Год выпуска: 2013
Продолжительность: 01:19:52
Перевод: Профессиональный (многоголосый закадровый) Amedia Premium HD
Cубтитры: нет
Оригинальная аудиодорожка: английский
Режиссер: Диабло Коуди / Diablo Cody
В ролях: Джулианна Хаф, Ник Офферман, Холли Хантер, Октавия Спенсер, Расселл Брэнд, Кэтлин Роуз Перкинс, Алишия Окс, Дэн Флаэрти, Эжур Дэун, Кристофер Берри
Описание: В центре повествования находится молодая, но чрезмерно консервативная и религиозная женщина, которая теряет всю веру после авиакатастрофы и отправляется в Лас-Вегас, чтобы наверстать упущенное и согрешить с каждым встречным. Но вера — штука сложная, и она начинает неумолимо возвращаться по пути к месту назначения.
II Сэмпл II IMDB II
Тип релиза: HDTV 1080i
Контейнер: TS
Видео: AVC / 1920x1080 / 16:9 / 25.0fps / Bit rate 6696Kbps / High@L4.0
Аудио 1: AC3 / 48.0 KHz / 6ch. / 384kbps / rus / mvo
Аудио 2: MP2 / 48.0 KHz / 2ch. / 192kbps / eng
MediaInfo
Общее
Идентификатор : 1 (0x1)
Полное имя : E:\torrent\Paradise.2013.HDTV1080i.ts
Формат : MPEG-TS
Размер файла : 4,27 Гбайт
Продолжительность : 1 ч. 19 м.
Режим общего битрейта : Переменный
Общий поток : 7656 Кбит/сек
Максимальный общий битрейт : 35,5 Мбит/сек
Видео
Идентификатор : 4113 (0x1011)
Идентификатор меню : 1 (0x1)
Формат : AVC
Формат/Информация : Advanced Video Codec
Профиль формата : High@L4.0
Параметр CABAC формата : Да
Параметр ReFrames формата : 4 кадра
Идентификатор кодека : 27
Продолжительность : 1 ч. 19 м.
Вид битрейта : Переменный
Битрейт : 6696 Кбит/сек
Максимальный битрейт : 40,0 Мбит/сек
Ширина : 1920 пикселей
Высота : 1080 пикселей
Соотношение сторон : 16:9
Частота кадров : 25,000 кадров/сек
Стандарт вещания : Component
Цветовое пространство : YUV
Субдискретизация насыщенности : 4:2:0
Битовая глубина : 8 бит
Тип развёртки : MBAFF
Бит/(Пиксели*Кадры) : 0.129
Размер потока : 3,74 Гбайт (87%)
Основные цвета : BT.709
Характеристики трансфера : BT.709
Коэффициенты матрицы : BT.709
Аудио #1
Идентификатор : 4352 (0x1100)
Идентификатор меню : 1 (0x1)
Формат : AC-3
Формат/Информация : Audio Coding 3
Расширение режима : CM (complete main)
Параметр Endianness формата : Big
Идентификатор кодека : 129
Продолжительность : 1 ч. 19 м.
Вид битрейта : Постоянный
Битрейт : 384 Кбит/сек
Каналы : 6 каналов
Расположение каналов : Front: L C R, Side: L R, LFE
Частота : 48,0 КГц
Битовая глубина : 16 бит
Метод сжатия : С потерями
Размер потока : 219 Мбайт (5%)
Аудио #2
Идентификатор : 4353 (0x1101)
Идентификатор меню : 1 (0x1)
Формат : MPEG Audio
Версия формата : Version 1
Профиль формата : Layer 2
Режим : Joint stereo
Расширение режима : Intensity Stereo + MS Stereo
Идентификатор кодека : 4
Продолжительность : 1 ч. 19 м.
Вид битрейта : Постоянный
Битрейт : 192 Кбит/сек
Каналы : 2 канала
Частота : 48,0 КГц
Метод сжатия : С потерями
Размер потока : 110 Мбайт (3%)
Скриншот с названием фильма Скриншоты
Скачать

Скачать торрент!

Как скачивать? · Что такое торрент? · Рейтинг и ограничения

Сайт не распространяет и не хранит электронные версии произведений, а лишь предоставляет доступ к создаваемому пользователями каталогу ссылок на торрент-файлы, которые содержат только списки хеш-сумм

[Профиль] [ЛС]
Показать сообщения:    
Ответить на тему

Текущее время: Сегодня 10:06

Часовой пояс: GMT + 4



Вы не можете начинать темы
Вы не можете отвечать на сообщения
Вы не можете редактировать свои сообщения
Вы не можете удалять свои сообщения
Вы не можете голосовать в опросах
Вы не можете прикреплять файлы к сообщениям
Вы не можете скачивать файлы