Люди Икс: Дни минувшего будущего / X-Men: Days of Future Past (Брайан Сингер / Bryan Singer) [2014, США, Великобритания, фантастика, фэнтези, боевик, приключения, BDRip 720p] Dub + Sub Rus, Ukr, Eng + Original Eng

Ответить на тему
 
Автор Сообщение

user ®

Стаж: 7 лет 7 месяцев

Сообщений: 20008

Пост Пост: #1 от 04-Окт-2014 23:00

[Цитировать]

Люди Икс: Дни минувшего будущего / X-Men: Days of Future Past Страна: США, Великобритания
Студия: 20th Century Fox Film Corporation, Bad Hat Harry Productions, Marvel Entertainment, Marv Films, Dune
Жанр: фантастика, фэнтези, боевик, приключения
Год выпуска: 2014
Продолжительность: 02:11:35
Перевод: Профессиональный (дублированный)Blu-ray CEE
Cубтитры: Russian (Forced, Full), Ukrainian, English (Forced,Full)
Оригинальная аудиодорожка: английский
Режиссер: Брайан Сингер / Bryan Singer
В ролях: Майкл Фассбендер, Джеймс МакЭвой, Хью Джекман, Дженнифер Лоуренс, Иэн МакКеллен, Патрик Стюарт, Николас Холт, Эллен Пейдж, Холли Берри, Питер Динклэйдж
Описание: В недалёком будущем мутанты близки к истреблению роботами-охотниками на мутантов Стражами. Единственная надежда для мутантов выжить — предотвратить череду роковых событий, приведших к появлению Стражей. С помощью своих способностей, Китти Прайд перемещает сознание Росомахи в его молодое тело в 1973 год. В прошлом всё оказывается не так радужно: молодой Профессор Икс окончательно разочарован в своих идеях, Магнето содержится в тюрьме глубоко под землёй, а человечество не знает как реагировать на широкое появление мутантов…

Тип релиза: BDRip 720p[WiKi]
Контейнер: MKV
Видео: AVC, 1280x534, 5428kbps, 23.976 fps
Аудио 1: Russian: 48 kHz, DTS, 3/2 (L,C,R,l,r) + LFE ch, ~768.00 kbps avg |Blu-ray CEE|
Аудио 2: Ukrainian: 48 kHz, AC3, 3/2 (L,C,R,l,r) + LFE ch, ~448.00 kbps |Blu-ray CEE|
Аудио 3: English: 48 kHz, AC3, 3/2 (L,C,R,l,r) + LFE ch, ~640.00 kbps |Original|
Чаптеры:есть

Доп.информация
За блюрей спасибо HDCLUB
x264 log
x264 [info]: profile High, level 4.1
x264 [info]: frame I:1997 Avg QP:13.65 size:137142
x264 [info]: frame P:46959 Avg QP:16.76 size: 45975
x264 [info]: frame B:140343 Avg QP:17.93 size: 20836
x264 [info]: consecutive B-frames: 4.0% 6.7% 10.9% 18.6% 17.6% 33.5% 4.9% 1.0% 0.8% 0.6% 1.3%
MediaInfo
General
Unique ID : 200759508655084295836764682448066765878 (0x9708DFFBAB857D30868D3A202BEEE436)
Complete name : D:\рипы\X-Men.Days.of.Future.Past.2014.720p.BluRay.DD5.1 x264-Talian-.mkv
Format : Matroska
Format version : Version 2
File size : 6.70 GiB
Duration : 2h 11mn
Overall bit rate : 7 287 Kbps
Movie name : X-Men: Days of Future Past-Talian-
Encoded date : UTC 2014-10-03 08:08:16
Writing application : mkvmerge v5.7.0 ('The Whirlwind') built on Jul 8 2012 20:08:51
Writing library : libebml v1.2.3 + libmatroska v1.3.0
Video
ID : 1
Format : AVC
Format/Info : Advanced Video Codec
Format profile : High@L4.1
Format settings, CABAC : Yes
Format settings, ReFrames : 12 frames
Codec ID : V_MPEG4/ISO/AVC
Duration : 2h 11mn
Bit rate : 5 428 Kbps
Width : 1 280 pixels
Height : 534 pixels
Display aspect ratio : 2.40:1
Frame rate : 23.976 fps
Color space : YUV
Chroma subsampling : 4:2:0
Bit depth : 8 bits
Scan type : Progressive
Bits/(Pixel*Frame) : 0.331
Stream size : 4.87 GiB (73%)
Title : WiKi
Writing library : x264 core 129 r2245+704+36 8e61944 tMod+MixAQ [8-bit@4:2:0 X86_64]
Encoding settings : cabac=1 / ref=12 / deblock=1:-3:-3 / analyse=0x3:0x133 / me=umh / subme=11 / psy=1 / fade_compensate=0.00 / psy_rd=1.05:0.10 / mixed_ref=1 / me_range=32 / chroma_me=1 / trellis=2 / 8x8dct=1 / cqm=0 / deadzone=21,11 / fast_pskip=0 / chroma_qp_offset=-3 / threads=18 / lookahead_threads=3 / sliced_threads=0 / nr=0 / decimate=0 / interlaced=0 / bluray_compat=0 / constrained_intra=0 / fgo=0 / bframes=10 / b_pyramid=2 / b_adapt=2 / b_bias=0 / direct=3 / weightb=1 / open_gop=0 / weightp=2 / keyint=250 / keyint_min=23 / scenecut=40 / intra_refresh=0 / rc_lookahead=80 / rc=2pass / mbtree=1 / bitrate=5428 / ratetol=1.0 / qcomp=0.75 / qpmin=0 / qpmax=69 / qpstep=4 / cplxblur=20.0 / qblur=0.5 / ip_ratio=1.40 / aq=3 / aq-strength=0.80 / aq-sensitivity=10.00 / aq-ifactor=1.00 / aq-pfactor=1.00 / aq-bfactor=1.00 / aq2=0
Language : English
Default : Yes
Forced : No
Audio #1
ID : 2
Format : DTS
Format/Info : Digital Theater Systems
Codec ID : A_DTS
Duration : 2h 11mn
Bit rate mode : Constant
Bit rate : 755 Kbps
Channel(s) : 6 channels
Channel positions : Front: L C R, Side: L R, LFE
Sampling rate : 48.0 KHz
Bit depth : 24 bits
Compression mode : Lossy
Stream size : 710 MiB (10%)
Title : DUB- Blu-ray CEE
Language : Russian
Default : Yes
Forced : No
Audio #2
ID : 3
Format : AC-3
Format/Info : Audio Coding 3
Mode extension : CM (complete main)
Format settings, Endianness : Big
Codec ID : A_AC3
Duration : 2h 11mn
Bit rate mode : Constant
Bit rate : 448 Kbps
Channel(s) : 6 channels
Channel positions : Front: L C R, Side: L R, LFE
Sampling rate : 48.0 KHz
Bit depth : 16 bits
Compression mode : Lossy
Stream size : 422 MiB (6%)
Title : DUB- Blu-ray CEE
Language : Ukrainian
Default : No
Forced : No
Audio #3
ID : 4
Format : AC-3
Format/Info : Audio Coding 3
Mode extension : CM (complete main)
Format settings, Endianness : Big
Codec ID : A_AC3
Duration : 2h 11mn
Bit rate mode : Constant
Bit rate : 640 Kbps
Channel(s) : 6 channels
Channel positions : Front: L C R, Side: L R, LFE
Sampling rate : 48.0 KHz
Bit depth : 16 bits
Compression mode : Lossy
Stream size : 602 MiB (9%)
Title : Original
Language : English
Default : No
Forced : No
Text #1
ID : 5
Format : UTF-8
Codec ID : S_TEXT/UTF8
Codec ID/Info : UTF-8 Plain Text
Title : Sub-forced
Language : Russian
Default : Yes
Forced : No
Text #2
ID : 6
Format : UTF-8
Codec ID : S_TEXT/UTF8
Codec ID/Info : UTF-8 Plain Text
Title : Sub-full
Language : Russian
Default : No
Forced : No
Text #3
ID : 7
Format : UTF-8
Codec ID : S_TEXT/UTF8
Codec ID/Info : UTF-8 Plain Text
Title : Sub-full
Language : Ukrainian
Default : No
Forced : No
Text #4
ID : 8
Format : UTF-8
Codec ID : S_TEXT/UTF8
Codec ID/Info : UTF-8 Plain Text
Title : Sub-forced
Language : English
Default : No
Forced : No
Text #5
ID : 9
Format : UTF-8
Codec ID : S_TEXT/UTF8
Codec ID/Info : UTF-8 Plain Text
Title : Sub-full
Language : English
Default : No
Forced : No
Menu
00:00:00.000 : en:00:00:00.000
00:03:33.338 : en:00:03:33.338
00:08:00.688 : en:00:08:00.688
00:10:28.628 : en:00:10:28.628
00:13:58.045 : en:00:13:58.045
00:17:02.021 : en:00:17:02.021
00:20:16.089 : en:00:20:16.089
00:22:11.330 : en:00:22:11.330
00:26:37.887 : en:00:26:37.887
00:30:32.038 : en:00:30:32.038
00:34:29.776 : en:00:34:29.776
00:36:00.992 : en:00:36:00.992
00:38:18.087 : en:00:38:18.087
00:40:37.101 : en:00:40:37.101
00:45:53.792 : en:00:45:53.792
00:48:53.847 : en:00:48:53.847
00:51:58.156 : en:00:51:58.156
00:54:43.113 : en:00:54:43.113
00:57:51.426 : en:00:57:51.426
01:00:48.186 : en:01:00:48.186
01:03:26.594 : en:01:03:26.594
01:07:09.567 : en:01:07:09.567
01:09:43.596 : en:01:09:43.596
01:13:11.470 : en:01:13:11.470
01:15:31.860 : en:01:15:31.860
01:17:27.726 : en:01:17:27.726
01:19:30.098 : en:01:19:30.098
01:24:50.710 : en:01:24:50.710
01:26:58.254 : en:01:26:58.254
01:31:04.250 : en:01:31:04.250
01:34:03.679 : en:01:34:03.679
01:37:33.180 : en:01:37:33.180
01:41:54.817 : en:01:41:54.817
01:44:52.995 : en:01:44:52.995
01:47:19.808 : en:01:47:19.808
01:51:29.766 : en:01:51:29.766
01:56:42.745 : en:01:56:42.745
02:00:12.413 : en:02:00:12.413
02:02:34.972 : en:02:02:34.972
02:10:31.907 : en:02:10:31.907
Скриншоты
Скачать

Скачать торрент!

Как скачивать? · Что такое торрент? · Рейтинг и ограничения

Сайт не распространяет и не хранит электронные версии произведений, а лишь предоставляет доступ к создаваемому пользователями каталогу ссылок на торрент-файлы, которые содержат только списки хеш-сумм

[Профиль] [ЛС]
Показать сообщения:    
Ответить на тему

Текущее время: Сегодня 18:17

Часовой пояс: GMT + 4



Вы не можете начинать темы
Вы не можете отвечать на сообщения
Вы не можете редактировать свои сообщения
Вы не можете удалять свои сообщения
Вы не можете голосовать в опросах
Вы не можете прикреплять файлы к сообщениям
Вы не можете скачивать файлы