Детсадовский полицейский / Kindergarten Cop (Айвен Райтман / Ivan Reitman) [1990, США, боевик, комедия, BDRip 720p] MVO + 2x DVO (Universal, Премьер Видео) + 2x MVO (НТВ, ТНТ) + 2x AVO (Михалев, Прямостанов) + VO + 2x Ukr + Sub Eng + Original Eng

Ответить на тему
 
Автор Сообщение

user ®

Стаж: 7 лет 7 месяцев

Сообщений: 20008

Пост Пост: #1 от 04-Окт-2014 23:00

[Цитировать]

Детсадовский полицейский / Kindergarten Cop
Страна: США
Жанр: боевик, комедия
Год выпуска: 1990
Продолжительность: 01:51:14
-
Перевод 1: Профессиональный (многоголосый закадровый)
Перевод 2: Профессиональный (двухголосый закадровый) Universal / ОРТ
Перевод 3: Профессиональный (двухголосый закадровый) Премьер Видео Фильм
Перевод 4: Профессиональный (многоголосый закадровый) НТВ
Перевод 5: Профессиональный (многоголосый закадровый) ТНТ
Перевод 6: Авторский (одноголосый, закадровый) Алексей Михалев
Перевод 7: Авторский (одноголосый, закадровый) Павел Прямостанов
Перевод 8: Одноголосый закадровый Дохаловоподобный
Cубтитры: английские (Full, SDH)
Оригинальная аудиодорожка: английский
-
Режиссер: Айвен Райтман / Ivan Reitman
В ролях: Арнольд Шварценеггер, Пенелопа Энн Миллер, Памела Рид, Линда Хант, Ричард Тайсон, Кэррол Бейкер, Кэти Мориарти, Джозеф Казинс, Кристиан Казинс, Парк Овералл
-
Описание: Детектив Джон Кимбл, ветеран «грязных улиц» Лос-Анджелеса, готов справиться с кем угодно. Но для того чтобы заманить в ловушку хитрого преступника, ему приходится устроиться воспитателем в детский сад. И вот когда он завоевывает уважение малышей и любовь прекрасной учительницы, ему предстоит схватка с преступником.
-

-
Сэмпл: https://www.sendspace.com/file/drtf79
-
Тип релиза: BDRip 720p
Контейнер: MKV
Видео: 1280x694p (1.85:1), 23.976 fps, 10310Kbps
Аудио 1: русский / AC3 / 2.0 / 48 kHz / 640 kbps / 16 bit || MVO
Аудио 2: русский / AC3 / 2.0 / 48 kHz / 224 kbps / 16 bit || DVO
Аудио 3: русский / AC3 / 2.0 / 48 kHz / 224 kbps / 16 bit || DVO
Аудио 4: русский / AC3 / 2.0 / 48 kHz / 192 kbps / 16 bit || MVO
Аудио 5: русский / AC3 / 2.0 / 48 kHz / 192 kbps / 16 bit || MVO
Аудио 6: русский / AC3 / 2.0 / 48 kHz / 640 kbps / 16 bit || AVO
Аудио 7: русский / AC3 / 2.0 / 48 kHz / 192 kbps / 16 bit || AVO
Аудио 8: русский / AC3 / 2.0 / 48 kHz / 192 kbps / 16 bit || VO
Аудио 9: украинский / AC3 / 2.0 / 48 kHz / 192 kbps / 16 bit || MVO
Аудио 10: украинский / AC3 / 2.0 / 48 kHz / 192 kbps / 16 bit || MVO
Аудио 11: английский / AC3 / 2.0 / 48 kHz / 640 kbps / 16 bit || ENG
Формат субтитров: softsub (SRT)
Главы: есть
Доп. информация
Рип от NNNB (автор рипа denis_100) добавлены английские субтитры отсюда [url=http://***/forum/viewtopic.php?t=4812535]http://***/forum/viewtopic.php?t=4812535[/url] Перевод от ОРТ индентичен Universal.
MediaInfo
General
Unique ID : 201193675715827141747129995020915380714 (0x975C7E12661D1A97A772AE81462711EA)
Complete name : C:\Users\ALEX\Downloads\Фильмы\HD\Kindergarten Cop.1990.BDRip.720p.8xRus.2xUkr.Eng.Subs.Chpt.mkv
Format : Matroska
Format version : Version 4 / Version 2
File size : 10.7 GiB
Duration : 1h 51mn
Overall bit rate : 13.8 Mbps
Encoded date : UTC 2014-09-27 17:23:38
Writing application : mkvmerge v6.6.0 ('The Edge Of The In Between') built on Dec 1 2013 17:55:00
Writing library : libebml v1.3.0 + libmatroska v1.4.1
Video
ID : 1
Format : AVC
Format/Info : Advanced Video Codec
Format profile : High@L4.1
Format settings, CABAC : Yes
Format settings, ReFrames : 9 frames
Codec ID : V_MPEG4/ISO/AVC
Duration : 1h 51mn
Bit rate : 10.0 Mbps
Width : 1 280 pixels
Height : 694 pixels
Display aspect ratio : 1.85:1
Frame rate mode : Constant
Frame rate : 23.976 fps
Color space : YUV
Chroma subsampling : 4:2:0
Bit depth : 8 bits
Scan type : Progressive
Bits/(Pixel*Frame) : 0.471
Stream size : 7.80 GiB (73%)
Title : NNNB [denis100]
Writing library : x264 core 138 r2358 9e941d1
Encoding settings : cabac=1 / ref=9 / deblock=1:-3:-3 / analyse=0x3:0x133 / me=umh / subme=11 / psy=1 / psy_rd=1.00:0.15 / mixed_ref=1 / me_range=32 / chroma_me=1 / trellis=2 / 8x8dct=1 / cqm=0 / deadzone=21,11 / fast_pskip=0 / chroma_qp_offset=-3 / threads=6 / lookahead_threads=1 / sliced_threads=0 / nr=0 / decimate=1 / interlaced=0 / bluray_compat=0 / constrained_intra=0 / bframes=8 / b_pyramid=2 / b_adapt=2 / b_bias=0 / direct=3 / weightb=1 / open_gop=0 / weightp=2 / keyint=240 / keyint_min=23 / scenecut=40 / intra_refresh=0 / rc_lookahead=40 / rc=crf / mbtree=1 / crf=17.8 / qcomp=0.60 / qpmin=0 / qpmax=69 / qpstep=4 / ip_ratio=1.40 / aq=2:0.90
Language : English
Default : Yes
Forced : No
Audio #1
ID : 2
Format : AC-3
Format/Info : Audio Coding 3
Mode extension : CM (complete main)
Format settings, Endianness : Big
Codec ID : A_AC3
Duration : 1h 51mn
Bit rate mode : Constant
Bit rate : 640 Kbps
Channel(s) : 2 channels
Channel positions : Front: L R
Sampling rate : 48.0 KHz
Bit depth : 16 bits
Compression mode : Lossy
Stream size : 509 MiB (5%)
Title : Многоголосый закадровый
Language : Russian
Default : Yes
Forced : No
Audio #2
ID : 3
Format : AC-3
Format/Info : Audio Coding 3
Mode extension : CM (complete main)
Format settings, Endianness : Big
Codec ID : A_AC3
Duration : 1h 51mn
Bit rate mode : Constant
Bit rate : 224 Kbps
Channel(s) : 2 channels
Channel positions : Front: L R
Sampling rate : 48.0 KHz
Bit depth : 16 bits
Compression mode : Lossy
Stream size : 178 MiB (2%)
Title : Двухголосый закадровый, Universal
Language : Russian
Default : No
Forced : No
Audio #3
ID : 4
Format : AC-3
Format/Info : Audio Coding 3
Mode extension : CM (complete main)
Format settings, Endianness : Big
Codec ID : A_AC3
Duration : 1h 51mn
Bit rate mode : Constant
Bit rate : 224 Kbps
Channel(s) : 2 channels
Channel positions : Front: L R
Sampling rate : 48.0 KHz
Bit depth : 16 bits
Compression mode : Lossy
Stream size : 178 MiB (2%)
Title : Двухголосый закадровый, Премьер Видео Фильм
Language : Russian
Default : No
Forced : No
Audio #4
ID : 5
Format : AC-3
Format/Info : Audio Coding 3
Mode extension : CM (complete main)
Format settings, Endianness : Big
Codec ID : A_AC3
Duration : 1h 51mn
Bit rate mode : Constant
Bit rate : 192 Kbps
Channel(s) : 2 channels
Channel positions : Front: L R
Sampling rate : 48.0 KHz
Bit depth : 16 bits
Compression mode : Lossy
Stream size : 153 MiB (1%)
Title : Многоголосый закадровый, НТВ
Language : Russian
Default : No
Forced : No
Audio #5
ID : 6
Format : AC-3
Format/Info : Audio Coding 3
Mode extension : CM (complete main)
Format settings, Endianness : Big
Codec ID : A_AC3
Duration : 1h 51mn
Bit rate mode : Constant
Bit rate : 192 Kbps
Channel(s) : 2 channels
Channel positions : Front: L R
Sampling rate : 48.0 KHz
Bit depth : 16 bits
Compression mode : Lossy
Stream size : 153 MiB (1%)
Title : Многоголосый закадровый, ТНТ
Language : Russian
Default : No
Forced : No
Audio #6
ID : 7
Format : AC-3
Format/Info : Audio Coding 3
Mode extension : CM (complete main)
Format settings, Endianness : Big
Codec ID : A_AC3
Duration : 1h 51mn
Bit rate mode : Constant
Bit rate : 640 Kbps
Channel(s) : 2 channels
Channel positions : Front: L R
Sampling rate : 48.0 KHz
Bit depth : 16 bits
Compression mode : Lossy
Stream size : 509 MiB (5%)
Title : Авторский, Алексей Михалёв
Language : Russian
Default : No
Forced : No
Audio #7
ID : 8
Format : AC-3
Format/Info : Audio Coding 3
Mode extension : CM (complete main)
Format settings, Endianness : Big
Codec ID : A_AC3
Duration : 1h 51mn
Bit rate mode : Constant
Bit rate : 192 Kbps
Channel(s) : 2 channels
Channel positions : Front: L R
Sampling rate : 48.0 KHz
Bit depth : 16 bits
Compression mode : Lossy
Stream size : 153 MiB (1%)
Title : Авторский, Павел Прямостанов
Language : Russian
Default : No
Forced : No
Audio #8
ID : 9
Format : AC-3
Format/Info : Audio Coding 3
Mode extension : CM (complete main)
Format settings, Endianness : Big
Codec ID : A_AC3
Duration : 1h 51mn
Bit rate mode : Constant
Bit rate : 192 Kbps
Channel(s) : 2 channels
Channel positions : Front: L R
Sampling rate : 48.0 KHz
Bit depth : 16 bits
Compression mode : Lossy
Stream size : 153 MiB (1%)
Title : Одноголосый закадровый, "Дохаловоподобный"
Language : Russian
Default : No
Forced : No
Audio #9
ID : 10
Format : AC-3
Format/Info : Audio Coding 3
Mode extension : CM (complete main)
Format settings, Endianness : Big
Codec ID : A_AC3
Duration : 1h 51mn
Bit rate mode : Constant
Bit rate : 192 Kbps
Channel(s) : 2 channels
Channel positions : Front: L R
Sampling rate : 48.0 KHz
Bit depth : 16 bits
Compression mode : Lossy
Stream size : 153 MiB (1%)
Title : Многоголосый закадровый, Новий канал
Language : Ukrainian
Default : No
Forced : No
Audio #10
ID : 11
Format : AC-3
Format/Info : Audio Coding 3
Mode extension : CM (complete main)
Format settings, Endianness : Big
Codec ID : A_AC3
Duration : 1h 51mn
Bit rate mode : Constant
Bit rate : 192 Kbps
Channel(s) : 2 channels
Channel positions : Front: L R
Sampling rate : 48.0 KHz
Bit depth : 16 bits
Compression mode : Lossy
Stream size : 153 MiB (1%)
Title : Многоголосый закадровый, ТРК Украина
Language : Ukrainian
Default : No
Forced : No
Audio #11
ID : 12
Format : AC-3
Format/Info : Audio Coding 3
Mode extension : CM (complete main)
Format settings, Endianness : Big
Codec ID : A_AC3
Duration : 1h 51mn
Bit rate mode : Constant
Bit rate : 640 Kbps
Channel(s) : 2 channels
Channel positions : Front: L R
Sampling rate : 48.0 KHz
Bit depth : 16 bits
Compression mode : Lossy
Stream size : 509 MiB (5%)
Title : Original
Language : English
Default : No
Forced : No
Text #1
ID : 13
Format : UTF-8
Codec ID : S_TEXT/UTF8
Codec ID/Info : UTF-8 Plain Text
Title : Full
Language : English
Default : No
Forced : No
Text #2
ID : 14
Format : UTF-8
Codec ID : S_TEXT/UTF8
Codec ID/Info : UTF-8 Plain Text
Title : SDH
Language : English
Default : No
Forced : No
Menu
00:00:00.000 : en:00:00:00.000
00:09:53.092 : en:00:09:53.092
00:15:13.579 : en:00:15:13.579
00:21:55.897 : en:00:21:55.897
00:25:05.295 : en:00:25:05.295
00:36:24.098 : en:00:36:24.098
00:42:38.889 : en:00:42:38.889
00:47:33.851 : en:00:47:33.851
01:02:02.468 : en:01:02:02.468
01:12:24.673 : en:01:12:24.673
01:20:38.917 : en:01:20:38.917
01:24:14.883 : en:01:24:14.883
01:28:32.640 : en:01:28:32.640
01:32:02.516 : en:01:32:02.516
01:38:32.156 : en:01:38:32.156
01:44:47.614 : en:01:44:47.614
Скриншоты
Скачать

Скачать торрент!

Как скачивать? · Что такое торрент? · Рейтинг и ограничения

Сайт не распространяет и не хранит электронные версии произведений, а лишь предоставляет доступ к создаваемому пользователями каталогу ссылок на торрент-файлы, которые содержат только списки хеш-сумм

[Профиль] [ЛС]
Показать сообщения:    
Ответить на тему

Текущее время: Сегодня 14:36

Часовой пояс: GMT + 4



Вы не можете начинать темы
Вы не можете отвечать на сообщения
Вы не можете редактировать свои сообщения
Вы не можете удалять свои сообщения
Вы не можете голосовать в опросах
Вы не можете прикреплять файлы к сообщениям
Вы не можете скачивать файлы