Бедный, бедный Павел (Виталий Мельников) [2003, исторический, DVB-AVC]

Ответить на тему
 
Автор Сообщение

user ®

Стаж: 7 лет 7 месяцев

Сообщений: 20008

Пост Пост: #1 от 04-Окт-2014 19:50

[Цитировать]

Бедный бедный Павел
Жанр: исторический
Год выпуска: 2003
Продолжительность: 01:41:02
Режиссёр: Виталий Мельников
В ролях: Виктор Сухоруков, Олег Янковский, Алексей Барабаш, Оксана Мысина, Анна Молчанова, Юлия Маврина, Игорь Шибанов, Евгений Карпов, Вадим Лобанов, Вера Карпова, Александр Григорьянц, Дмитрий Сутырин, Борис Хвошнянский, Сергей Барковский, Иван Паршин, Андрей Чуманов, Сергей Мурзин
Описание: Историческая драма по пьесе Д. Мережковского "Павел I".
Трагическая история Российского императора, Магистра Мальтийского ордена Павла I, павшего жертвой заговора своих приближенных.
Павел I, который стремился объединить православную и католическую ветви христианства – одна из самых загадочных и ярких фигур российской истории. Костюмно-историческая драма, снятая в интерьерах блистательных дворцов С.-Петербурга.
Доп. информация: Запись потока *.ts со спутника ABS-2, 75° в.д., ремукс в *.mkv программой VideoReDo.
Качество видео: DVB-AVC
Формат видео: MKV
Видео: Advanced Video Codec, 720(768)x576 (4:3), 25,000 кадров/сек, 3087 Кбит/сек
Аудио: MPEG Audio, 48,0 КГц, 192 Кбит/сек, 2 канала
Сравнение
[url=http://***/forum/viewtopic.php?t=3016101]http://***/forum/viewtopic.php?t=3016101[/url]
http://screenshotcomparison.com/comparison/94201
MediaInfo
Общее
Уникальный идентификатор : 58484610081960894255316556758934843494 (0x2BFFB9E7364963FE555197BAC6EB7066)
Полное имя : E:\Torrent\БЕДНЫЙ БЕДНЫЙ ПАВЕЛ (Kultura).mkv
Формат : Matroska
Версия формата : Version 2
Размер файла : 2,36 Гбайт
Продолжительность : 1 ч. 41 м.
Общий поток : 3345 Кбит/сек
Программа кодирования : Lavf52.64.2
Библиотека кодирования : Lavf52.64.2
Видео
Идентификатор : 1
Формат : AVC
Формат/Информация : Advanced Video Codec
Профиль формата : High@L3.0
Параметр CABAC формата : Да
Параметр ReFrames формата : 4 кадра
Идентификатор кодека : V_MPEG4/ISO/AVC
Продолжительность : 1 ч. 41 м.
Битрейт : 3087 Кбит/сек
Ширина : 720 пикселей
Высота : 576 пикселей
Соотношение сторон : 4:3
Соотношение сторон в оригинале : 4:3
Режим частоты кадров : Постоянный
Частота кадров : 25,000 кадров/сек
Стандарт вещания : PAL
Цветовое пространство : YUV
Субдискретизация насыщенности : 4:2:0
Битовая глубина : 8 бит
Тип развёртки : MBAFF
Бит/(Пиксели*Кадры) : 0.298
Размер потока : 2,18 Гбайт (92%)
Default : Да
Forced : Нет
Аудио
Идентификатор : 2
Формат : MPEG Audio
Версия формата : Version 1
Профиль формата : Layer 2
Режим : Joint stereo
Расширение режима : Intensity Stereo + MS Stereo
Идентификатор кодека : A_MPEG/L2
Идентификатор кодека/Подсказка : MP2
Продолжительность : 1 ч. 41 м.
Вид битрейта : Постоянный
Битрейт : 192 Кбит/сек
Каналы : 2 канала
Частота : 48,0 КГц
Метод сжатия : С потерями
Размер потока : 139 Мбайт (6%)
Язык : English
Default : Да
Forced : Нет
Скриншоты
Скачать

Скачать торрент!

Как скачивать? · Что такое торрент? · Рейтинг и ограничения

Сайт не распространяет и не хранит электронные версии произведений, а лишь предоставляет доступ к создаваемому пользователями каталогу ссылок на торрент-файлы, которые содержат только списки хеш-сумм

[Профиль] [ЛС]
Показать сообщения:    
Ответить на тему

Текущее время: Сегодня 13:53

Часовой пояс: GMT + 4



Вы не можете начинать темы
Вы не можете отвечать на сообщения
Вы не можете редактировать свои сообщения
Вы не можете удалять свои сообщения
Вы не можете голосовать в опросах
Вы не можете прикреплять файлы к сообщениям
Вы не можете скачивать файлы