Люди Икс: Дни минувшего будущего / X-Men: Days of Future Past (Брайан Сингер / Bryan Singer) [2014, Фантастика, боевик, триллер, приключения, BDRip-AVC] Dub (BD EUR) + Sub (rus., ukr., eng.)

Ответить на тему
 
Автор Сообщение

user ®

Стаж: 7 лет 7 месяцев

Сообщений: 20008

Пост Пост: #1 от 04-Окт-2014 16:40

[Цитировать]

Люди Икс: Дни минувшего будущего / X-Men: Days of Future Past
Страна: США, Великобритания / 20th Century Fox Film Corporation, TSG Entertainment, Bad Hat Harry Production
Жанр: Фантастика, боевик, триллер, приключения
Год выпуска: 2014
Продолжительность: 02:11:35-Перевод: Профессиональный (дублированный) [Лицензия]
Cубтитры: русские (полные + форс.), украинские (полные + форс.), английские (Full + SDH)
Формат субтитров: softsub (SRT)
Оригинальная аудиодорожка: нет-Режиссер: Брайан Сингер / Bryan Singer
В ролях: Хью Джекман, Иэн МакКеллен, Патрик Стюарт, Холли Берри, Майкл Фассбендер, Джеймс МакЭвой, Анна Пакуин, Эллен Пейдж, Шон Эшмор, Дженнифер Лоуренс, Николас Холт, Питер Динклэйдж, Омар Си, Бинбин Фань
Описание: В недалёком будущем мутанты близки к истреблению роботами-охотниками на мутантов Стражами. Единственная надежда для мутантов выжить - предотвратить череду роковых событий, приведших к появлению Стражей. С помощью своих способностей, Китти Прайд перемещает сознание Росомахи в его молодое тело в 1973 год. В прошлом всё оказывается не так радужно: молодой Профессор Икс окончательно разочарован в своих идеях, Магнето содержится в тюрьме глубоко под землёй, а человечество не знает как реагировать на широкое появление мутантов...-
Релиз от:
Автор рипа: potroks-Качество видео: BDRip-AVC [X_MEN_DAYS_OF_FUTURE_PAST_HDCLUB]
Формат видео: MKV
Видео: x. 264, 912x380 (2,40:1), 23,976 fps, 1397 kbps, 0.168 bit/pixel
Аудио: 48 kHz, AC3 Dolby Digital, 2/0 (L,R) ch, 192.00 kbps

MediaInfo
Общее
Уникальный идентификатор : 219215296254421825911601509913115361132 (0xA4EB5490AA361449913208374F99FF6C)
Полное имя : Ludi.Iks.Dni.Minuvshego.Buduschego.2014.RUS.BDRip.x264.-HELLYWOOD.mkv
Формат : Matroska
Версия формата : Version 4 / Version 2
Размер файла : 1,46 Гбайт
Продолжительность : 2 ч. 11 м.
Общий поток : 1591 Кбит/сек
Название фильма : X-Men: Days of Future Past (2014) -- HELLYWOOD
Дата кодирования : UTC 2014-10-04 03:03:46
Программа кодирования : mkvmerge v5.9.0 ('On The Loose') built on Dec 15 2012 16:39:58
Библиотека кодирования : libebml v1.3.0 + libmatroska v1.4.0
Видео
Идентификатор : 1
Формат : AVC
Формат/Информация : Advanced Video Codec
Профиль формата : High@L4.1
Параметр CABAC формата : Да
Параметр ReFrames формата : 12 кадров
Идентификатор кодека : V_MPEG4/ISO/AVC
Продолжительность : 2 ч. 11 м.
Битрейт : 1397 Кбит/сек
Ширина : 912 пикселей
Высота : 380 пикселей
Соотношение сторон : 2,40:1
Режим частоты кадров : Постоянный
Частота кадров : 23,976 кадра/сек
Цветовое пространство : YUV
Субдискретизация насыщенности : 4:2:0
Битовая глубина : 8 бит
Тип развёртки : Прогрессивная
Бит/(Пиксели*Кадры) : 0.168
Размер потока : 1,26 Гбайт (86%)
Заголовок : potroks
Библиотека кодирования : x264 core 130 r2273 b3065e6
Настройки программы : cabac=1 / ref=12 / deblock=1:-2:-2 / analyse=0x3:0x133 / me=umh / subme=11 / psy=1 / psy_rd=1.05:0.05 / mixed_ref=1 / me_range=48 / chroma_me=1 / trellis=2 / 8x8dct=1 / cqm=0 / deadzone=21,11 / fast_pskip=0 / chroma_qp_offset=-3 / threads=9 / lookahead_threads=6 / sliced_threads=0 / nr=0 / decimate=0 / interlaced=0 / bluray_compat=0 / constrained_intra=0 / bframes=13 / b_pyramid=2 / b_adapt=2 / b_bias=0 / direct=3 / weightb=1 / open_gop=0 / weightp=2 / keyint=250 / keyint_min=22 / scenecut=40 / intra_refresh=0 / rc_lookahead=60 / rc=2pass / mbtree=0 / bitrate=1397 / ratetol=1.0 / qcomp=0.70 / qpmin=0 / qpmax=69 / qpstep=4 / cplxblur=20.0 / qblur=0.5 / vbv_maxrate=50000 / vbv_bufsize=62500 / nal_hrd=none / ip_ratio=1.35 / pb_ratio=1.25 / aq=1:0.80
Язык : English
Default : Да
Forced : Нет
Аудио
Идентификатор : 2
Формат : AC-3
Формат/Информация : Audio Coding 3
Расширение режима : CM (complete main)
Параметр Endianness формата : Big
Идентификатор кодека : A_AC3
Продолжительность : 2 ч. 11 м.
Вид битрейта : Постоянный
Битрейт : 192 Кбит/сек
Каналы : 2 канала
Расположение каналов : Front: L R
Частота : 48,0 КГц
Битовая глубина : 16 бит
Метод сжатия : С потерями
Размер потока : 181 Мбайт (12%)
Заголовок : Dub | DD 2.0 @ 192 kbps
Язык : Russian
Default : Да
Forced : Нет
Текст #1
Идентификатор : 3
Формат : UTF-8
Идентификатор кодека : S_TEXT/UTF8
Идентификатор кодека/Информация : UTF-8 Plain Text
Заголовок : форс.
Язык : Russian
Default : Да
Forced : Нет
Текст #2
Идентификатор : 4
Формат : UTF-8
Идентификатор кодека : S_TEXT/UTF8
Идентификатор кодека/Информация : UTF-8 Plain Text
Заголовок : полные Blu-Ray
Язык : Russian
Default : Нет
Forced : Нет
Текст #3
Идентификатор : 5
Формат : UTF-8
Идентификатор кодека : S_TEXT/UTF8
Идентификатор кодека/Информация : UTF-8 Plain Text
Заголовок : форс.
Язык : Ukrainian
Default : Нет
Forced : Нет
Текст #4
Идентификатор : 6
Формат : UTF-8
Идентификатор кодека : S_TEXT/UTF8
Идентификатор кодека/Информация : UTF-8 Plain Text
Заголовок : полные
Язык : Ukrainian
Default : Нет
Forced : Нет
Текст #5
Идентификатор : 7
Формат : UTF-8
Идентификатор кодека : S_TEXT/UTF8
Идентификатор кодека/Информация : UTF-8 Plain Text
Заголовок : Forced
Язык : English
Default : Нет
Forced : Нет
Текст #6
Идентификатор : 8
Формат : UTF-8
Идентификатор кодека : S_TEXT/UTF8
Идентификатор кодека/Информация : UTF-8 Plain Text
Заголовок : Full
Язык : English
Default : Нет
Forced : Нет
Меню
00:00:00.000 : en:(01)00:00:00:000
00:03:33.338 : en:(02)00:03:33:338
00:08:00.688 : en:(03)00:08:00:688
00:10:28.628 : en:(04)00:10:28:628
00:13:58.045 : en:(05)00:13:58:045
00:17:02.021 : en:(06)00:17:02:021
00:20:16.089 : en:(07)00:20:16:089
00:22:11.330 : en:(08)00:22:11:330
00:26:37.887 : en:(09)00:26:37:887
00:30:32.038 : en:(10)00:30:32:038
00:34:29.776 : en:(11)00:34:29:776
00:36:00.992 : en:(12)00:36:00:992
00:38:18.087 : en:(13)00:38:18:087
00:40:37.101 : en:(14)00:40:37:101
00:45:53.792 : en:(15)00:45:53:792
00:48:53.847 : en:(16)00:48:53:847
00:51:58.156 : en:(17)00:51:58:156
00:54:43.113 : en:(18)00:54:43:113
00:57:51.426 : en:(19)00:57:51:426
01:00:48.186 : en:(20)01:00:48:186
01:03:26.594 : en:(21)01:03:26:594
01:07:09.567 : en:(22)01:07:09:567
01:09:43.596 : en:(23)01:09:43:596
01:13:11.470 : en:(24)01:13:11:470
01:15:31.860 : en:(25)01:15:31:860
01:17:27.726 : en:(26)01:17:27:726
01:19:30.098 : en:(27)01:19:30:098
01:24:50.710 : en:(28)01:24:50:710
01:26:58.254 : en:(29)01:26:58:254
01:31:04.250 : en:(30)01:31:04:250
01:34:03.679 : en:(31)01:34:03:679
01:37:33.180 : en:(32)01:37:33:180
01:41:54.817 : en:(33)01:41:54:817
01:44:52.995 : en:(34)01:44:52:995
01:47:19.808 : en:(35)01:47:19:808
01:51:29.766 : en:(36)01:51:29:766
01:56:42.745 : en:(37)01:56:42:745
02:00:12.413 : en:(38)02:00:12:413
02:02:34.972 : en:(39)02:02:34:972
02:10:31.907 : en:(40)02:10:31:907
02:11:35.095 : en:(41)02:11:35:095
Скриншоты
Скачать

Скачать торрент!

Как скачивать? · Что такое торрент? · Рейтинг и ограничения

Сайт не распространяет и не хранит электронные версии произведений, а лишь предоставляет доступ к создаваемому пользователями каталогу ссылок на торрент-файлы, которые содержат только списки хеш-сумм

[Профиль] [ЛС]
Показать сообщения:    
Ответить на тему

Текущее время: Сегодня 20:39

Часовой пояс: GMT + 4



Вы не можете начинать темы
Вы не можете отвечать на сообщения
Вы не можете редактировать свои сообщения
Вы не можете удалять свои сообщения
Вы не можете голосовать в опросах
Вы не можете прикреплять файлы к сообщениям
Вы не можете скачивать файлы