Люди Икс: Дни минувшего будущего / X-Men: Days of Future Past (Брайан Сингер / Bryan Singer) [2014, США, Великобритания, фантастика, боевик, триллер, приключения, BDRip] Dub CEE + Sub rus forced

Ответить на тему
 
Автор Сообщение

user ®

Стаж: 7 лет 7 месяцев

Сообщений: 20008

Пост Пост: #1 от 04-Окт-2014 16:40

[Цитировать]

Люди Икс: Дни минувшего будущего / X-Men: Days of Future Past
«His past. Our future»
- Страна: США, Великобритания / 20th Century Fox Film Corporation, Marvel Entertainment, TSG Entertainment...
Жанр: фантастика, боевик, триллер, приключения
Год выпуска: 2014
Продолжительность: 02:11:35
Перевод: Профессиональный (дублированный) лицензия CEE
Cубтитры: русские (forced) на надписи и иноcтранную речь (внешние)
Режиссёр: Брайан Сингер / Bryan Singer
В ролях: Хью Джекман, Джеймс МакЭвой, Майкл Фассбендер, Дженнифер Лоуренс, Холли Берри, Николас Холт, Анна Пэкуин, Эллен Пейдж, Питер Динклэйдж, Шон Эшмор.
Описание: В недалёком будущем мутанты близки к истреблению роботами-охотниками на мутантов Стражами. Единственная надежда для мутантов выжить — предотвратить череду роковых событий, приведших к появлению Стражей. С помощью своих способностей, Китти Прайд перемещает сознание Росомахи в его молодое тело в 1973 год. В прошлом всё оказывается не так радужно: молодой Профессор Икс окончательно разочарован в своих идеях, Магнето содержится в тюрьме глубоко под землёй, а человечество не знает как реагировать на широкое появление мутантов…-Рейтинг
imdb.com: 8.30 (243 676)
kinopoisk.ru: 8.027 (69 048)
MPAA: - детям до 13 лет просмотр не желателен-Сэмпл: http://multi-up.com/1003633-Качество видео: BDRip [[url=http://***/forum/viewtopic.php?t=4836638]Blu-Ray Disc 1080p EUR[/url]]
Формат видео: AVI
Видео: XviD build 65, 720x304 (2.37:1), 23.976 fps, ~1915 kbps avg, 0.365 bit/pixel
Аудио: 48 kHz, AC3 Dolby Digital, 3/2 (L,C,R,l,r) + LFE ch, ~448 kbps avg (Dub)
Формат субтитров: softsub (SRT)
-MediaInfo
Общее
Полное имя : D:\X-Men.Days.of.Future.Past.2014.Dub.BDRip.2,18Gb.XviD.AC3\X-Men.Days.of.Future.Past.2014.Dub.BDRip.2,18Gb.XviD.AC3.avi
Формат : AVI
Формат/Информация : Audio Video Interleave
Профиль формата : OpenDML
Размер файла : 2,18 Гбайт
Продолжительность : 2 ч. 11 м.
Общий поток : 2375 Кбит/сек
Название фильма : X-Men: Days of Future Past 2014
Режиссёр : Bryan Singer
Дата записи : 04.10.2014
Программа кодирования : VirtualDubModRus 1.5.10.2 (build 2542/release)
Библиотека кодирования : VirtualDubMod build 2542/release
Правообладатель : ***
Примечание : MooN_WalkeR
Видео
Идентификатор : 0
Формат : MPEG-4 Visual
Профиль формата : Advanced Simple@L5
Параметр BVOP формата : 1
Параметр QPel формата : Нет
Параметр GMC формата : Без точки перехода
Параметр матрицы формата : Выборочная
Идентификатор кодека : XVID
Идентификатор кодека/Подсказка : XviD
Продолжительность : 2 ч. 11 м.
Битрейт : 1915 Кбит/сек
Ширина : 720 пикселей
Высота : 304 пикселя
Соотношение сторон : 2,35:1
Частота кадров : 23,976 кадра/сек
Цветовое пространство : YUV
Субдискретизация насыщенности : 4:2:0
Битовая глубина : 8 бит
Тип развёртки : Прогрессивная
Метод сжатия : С потерями
Бит/(Пиксели*Кадры) : 0.365
Размер потока : 1,76 Гбайт (81%)
Библиотека кодирования : XviD 65
Аудио
Идентификатор : 1
Формат : AC-3
Формат/Информация : Audio Coding 3
Расширение режима : CM (complete main)
Параметр Endianness формата : Big
Идентификатор кодека : 2000
Продолжительность : 2 ч. 11 м.
Вид битрейта : Постоянный
Битрейт : 448 Кбит/сек
Каналы : 6 каналов
Расположение каналов : Front: L C R, Side: L R, LFE
Частота : 48,0 КГц
Битовая глубина : 16 бит
Метод сжатия : С потерями
Размер потока : 422 Мбайт (19%)
Выравнивание : Разделение по промежуткам
Продолжительность промежутка : 42 мс. (1,00 видеокадр)
Время предзагрузки промежутка : 500 мс.
Заголовок : Dub CEE
Скриншоты
Скачать

Скачать торрент!

Как скачивать? · Что такое торрент? · Рейтинг и ограничения

Сайт не распространяет и не хранит электронные версии произведений, а лишь предоставляет доступ к создаваемому пользователями каталогу ссылок на торрент-файлы, которые содержат только списки хеш-сумм

[Профиль] [ЛС]
Показать сообщения:    
Ответить на тему

Текущее время: Сегодня 14:12

Часовой пояс: GMT + 4



Вы не можете начинать темы
Вы не можете отвечать на сообщения
Вы не можете редактировать свои сообщения
Вы не можете удалять свои сообщения
Вы не можете голосовать в опросах
Вы не можете прикреплять файлы к сообщениям
Вы не можете скачивать файлы