Местный / The Homesman (Томми Ли Джонс / Tommy Lee Jones) [2014, США, Франция, драма, вестерн, HDRip] DVO

Ответить на тему
 
Автор Сообщение

user ®

Стаж: 7 лет 7 месяцев

Сообщений: 20008

Пост Пост: #1 от 04-Окт-2014 13:30

[Цитировать]

Местный / The Homesman
Страна: США, Франция
Жанр: драма, вестерн
Год выпуска: 2014
Продолжительность: 02:02:33
Перевод: Любительский (двухголосый закадровый) Сладкая парочка
Cубтитры: нет
Оригинальная аудиодорожка: нет
Режиссер: Томми Ли Джонс / Tommy Lee Jones
В ролях: Томми Ли Джонс, Хилари Суэнк, Грэйс Гаммер, Миранда Отто, Соня Рихтер, Давид Денсик, Джон Литгоу, Тим Блейк Нельсон, Джеймс Спэйдер, Уильям Фихтнер
Описание: События фильма разворачиваются во времена освоения американского Запада. Главной героине надо перевезти трех умственно неполноценных женщин из Небраски в Айову. Сопроводить опасную, требующую от всех большого мужества экспедицию нанят человек вне закона…
Доп. информация:

Сэмпл: http://multi-up.com/1003622
Качество видео: HDRip
Формат видео: AVI
Видео: 720x304 (2.37:1), 24 fps, XviD build 50 ~1244 kbps avg, 0.24 bit/pixel
Аудио: 48 kHz, AC3 Dolby Digital, 3/2 (L,C,R,l,r) + LFE ch, ~448 kbps
MediaInfo
General
Complete name : C:\Users\Вика\Desktop\The.Homеsmаn.2014.HDRip.avi
Format : AVI
Format/Info : Audio Video Interleave
File size : 1.46 GiB
Duration : 2h 2mn
Overall bit rate : 1 702 Kbps
Writing application : VirtualDubMod 1.5.10.2 (build 2540/release)
Writing library : VirtualDubMod build 2540/release
Video
ID : 0
Format : MPEG-4 Visual
Format profile : Advanced Simple@L5
Format settings, BVOP : Yes
Format settings, QPel : No
Format settings, GMC : No warppoints
Format settings, Matrix : Default (MPEG)
Codec ID : XVID
Codec ID/Hint : XviD
Duration : 2h 2mn
Bit rate : 1 245 Kbps
Width : 720 pixels
Height : 304 pixels
Display aspect ratio : 2.35:1
Frame rate : 24.000 fps
Color space : YUV
Chroma subsampling : 4:2:0
Bit depth : 8 bits
Scan type : Progressive
Compression mode : Lossy
Bits/(Pixel*Frame) : 0.237
Stream size : 1.07 GiB (73%)
Writing library : XviD 1.2.1 (UTC 2008-12-04)
Audio
ID : 1
Format : AC-3
Format/Info : Audio Coding 3
Mode extension : CM (complete main)
Format settings, Endianness : Big
Codec ID : 2000
Duration : 2h 2mn
Bit rate mode : Constant
Bit rate : 448 Kbps
Channel count : 6 channels
Channel positions : Front: L C R, Side: L R, LFE
Sampling rate : 48.0 KHz
Bit depth : 16 bits
Compression mode : Lossy
Stream size : 393 MiB (26%)
Alignment : Split accross interleaves
Interleave, duration : 42 ms (1.00 video frame)
Interleave, preload duration : 500 ms
Скриншоты
Скачать

Скачать торрент!

Как скачивать? · Что такое торрент? · Рейтинг и ограничения

Сайт не распространяет и не хранит электронные версии произведений, а лишь предоставляет доступ к создаваемому пользователями каталогу ссылок на торрент-файлы, которые содержат только списки хеш-сумм

[Профиль] [ЛС]
Показать сообщения:    
Ответить на тему

Текущее время: Сегодня 18:40

Часовой пояс: GMT + 4



Вы не можете начинать темы
Вы не можете отвечать на сообщения
Вы не можете редактировать свои сообщения
Вы не можете удалять свои сообщения
Вы не можете голосовать в опросах
Вы не можете прикреплять файлы к сообщениям
Вы не можете скачивать файлы