Люди Икс: Дни минувшего будущего / X-Men: Days of Future Past (Брайан Сингер / Bryan Singer) [2014, США, Великобритания, фантастика, боевик, триллер, приключения, BDRip] Dub + Subs (Rus, Eng) + Original Eng

Ответить на тему
 
Автор Сообщение

user ®

Стаж: 7 лет 7 месяцев

Сообщений: 20008

Пост Пост: #1 от 03-Окт-2014 22:05

[Цитировать]

Люди Икс: Дни минувшего будущего / X-Men: Days of Future Past
«His past. Our future»
-
Страна: США, Великобритания
Жанр: фантастика, боевик, триллер, приключения
Год выпуска: 2014
Продолжительность: 02:11:35
Перевод: Профессиональный (дублированный)
Cубтитры: RUS (full, forced) | ENG (full, forced) | *srt «HQ-VIDEO»
Оригинальная звуковая дорожка [English]-Режиссер: Брайан Сингер / Bryan Singer
Сценарий: Саймон Кинберг / Simon Kinberg, Джейн Голдман / Jane Goldman
Продюсер: Саймон Кинберг / Simon Kinberg, Лорен Шулер Доннер / Lauren Shuler Donner
Оператор: Ньютон Томас Сигел / Newton Thomas Sigel
Композитор: Джон Оттмен / John Ottman-В ролях:
Хью Джекман (Logan / Wolverine), Джеймс МакЭвой (Charles Xavier), Майкл Фассбендер (Erik Lehnsherr), Дженнифер Лоуренс (Raven / Mystique), Холли Берри (Storm), Николас Холт (Hank / Beast), Анна Пэкуин (Rogue), Эллен Пейдж (Kitty Pryde), Питер Динклэйдж (Dr. Bolivar Trask), Шон Эшмор (Bobby / Iceman).-Бюджет: $200 000 000
Сборы в США: $233 902 091
Сборы в России: $746 026 257
Сборы в мире: $22 492 820-Мировая премьера: 10 мая 2014
Релиз на DVD: 2 октября 2014, «Двадцатый Век Фокс СНГ»
Релиз на Blu-Ray: 2 октября 2014, «Двадцатый Век Фокс СНГ»
-Описание:
В недалёком будущем мутанты близки к истреблению роботами-охотниками на мутантов Стражами. Единственная надежда для мутантов выжить - предотвратить череду роковых событий, приведших к появлению Стражей. С помощью своих способностей, Китти Прайд перемещает сознание Росомахи в его молодое тело в 1973 год. В прошлом всё оказывается не так радужно: молодой Профессор Икс окончательно разочарован в своих идеях, Магнето содержится в тюрьме глубоко под землёй, а человечество не знает как реагировать на широкое появление мутантов...-Рейтинг
kinopoisk.ru: 8.029 (68 732)
imdb.com: 8.30 (241 430)
MPAA: PG-13 - Детям до 13 лет просмотр не желателен-Качество видео: [url=http://***/forum/viewtopic.php?t=4836638]BDRip[/url] | «Cпасибо ☞ am@zon» / / by crazy_gringo
Формат видео: AVI ///СОВМЕСТИМО С БЫТОВЫМИ ПЛЕЕРАМИ/// → //SAMPLE//
Видео: 720x304 (2.37:1), 23.976 fps, XviD build 73 ~2256 kbps avg, 0.43 bit/pixel
Аудио#1: 48.0 kHz, AC3 Dolby Digital, 3/2 (L,C,R,l,r) + LFE ch, ~448.00 kbps avg | DUB
Аудио#2: 48.0 kHz, AC3 Dolby Digital, 3/2 (L,C,R,l,r) + LFE ch, ~448.00 kbps avg | ENG
Размер: 2982.15 Mb (2/3 DVDR)
-MediaInfo
Общее
Полное имя : A:\Фильмы\X-Men_Days of Future Past.2014\X-Men_Days of Future Past.2014.BDRip.XviD.2,91Gb.AC3.avi
Формат : AVI
Формат/Информация : Audio Video Interleave
Профиль формата : OpenDML
Размер файла : 2,91 Гбайт
Продолжительность : 2 ч. 11 м.
Общий поток : 3168 Кбит/сек
Программа кодирования : VirtualDubMod 1.5.10.3 | www.virtualdub-fr.org || (build 2550/release)
Библиотека кодирования : VirtualDubMod build 2550/release
Видео
Идентификатор : 0
Формат : MPEG-4 Visual
Профиль формата : Advanced Simple@L5
Параметр BVOP формата : 1
Параметр QPel формата : Нет
Параметр GMC формата : Без точки перехода
Параметр матрицы формата : Выборочная
Идентификатор кодека : XVID
Идентификатор кодека/Подсказка : XviD
Продолжительность : 2 ч. 11 м.
Битрейт : 2256 Кбит/сек
Ширина : 720 пикселей
Высота : 304 пикселя
Соотношение сторон : 2,37:1
Частота кадров : 23,976 кадра/сек
Цветовое пространство : YUV
Субдискретизация насыщенности : 4:2:0
Битовая глубина : 8 бит
Тип развёртки : Прогрессивная
Метод сжатия : С потерями
Бит/(Пиксели*Кадры) : 0.430
Размер потока : 2,07 Гбайт (71%)
Библиотека кодирования : XviD 73
Аудио #1
Идентификатор : 1
Формат : AC-3
Формат/Информация : Audio Coding 3
Расширение режима : CM (complete main)
Параметр Endianness формата : Big
Идентификатор кодека : 2000
Продолжительность : 2 ч. 11 м.
Вид битрейта : Постоянный
Битрейт : 448 Кбит/сек
Каналы : 6 каналов
Расположение каналов : Front: L C R, Side: L R, LFE
Частота : 48,0 КГц
Битовая глубина : 16 бит
Метод сжатия : С потерями
Размер потока : 422 Мбайт (14%)
Выравнивание : Соединение по промежуткам
Продолжительность промежутка : 42 мс. (1,00 видеокадр)
Время предзагрузки промежутка : 512 мс.
Аудио #2
Идентификатор : 2
Формат : AC-3
Формат/Информация : Audio Coding 3
Расширение режима : CM (complete main)
Параметр Endianness формата : Big
Идентификатор кодека : 2000
Продолжительность : 2 ч. 11 м.
Вид битрейта : Постоянный
Битрейт : 448 Кбит/сек
Каналы : 6 каналов
Расположение каналов : Front: L C R, Side: L R, LFE
Частота : 48,0 КГц
Битовая глубина : 16 бит
Метод сжатия : С потерями
Размер потока : 422 Мбайт (14%)
Выравнивание : Соединение по промежуткам
Продолжительность промежутка : 42 мс. (1,00 видеокадр)
Время предзагрузки промежутка : 512 мс.
Скриншот c названием фильма Comparison
[url=http://***/forum/viewtopic.php?t=4826413]http://***/forum/viewtopic.php?t=4826413[/url]
----------------------------------------------------------------------
http://screenshotcomparison.com/comparison/94036/picture:9
http://screenshotcomparison.com/comparison/94037/picture:0
Скриншоты
Скачать

Скачать торрент!

Как скачивать? · Что такое торрент? · Рейтинг и ограничения

Сайт не распространяет и не хранит электронные версии произведений, а лишь предоставляет доступ к создаваемому пользователями каталогу ссылок на торрент-файлы, которые содержат только списки хеш-сумм

[Профиль] [ЛС]
Показать сообщения:    
Ответить на тему

Текущее время: Сегодня 21:58

Часовой пояс: GMT + 4



Вы не можете начинать темы
Вы не можете отвечать на сообщения
Вы не можете редактировать свои сообщения
Вы не можете удалять свои сообщения
Вы не можете голосовать в опросах
Вы не можете прикреплять файлы к сообщениям
Вы не можете скачивать файлы