Вечный "Ноль" / The Eternal Zero / Eien no Zero / 永遠の0 (Такаси Ямадзаки / Takashi Yamazaki) [2013, Япония, военный, драма, DVDRip] VO (den904)

Ответить на тему
 
Автор Сообщение

user ®

Стаж: 13 лет

Сообщений: 15071

Пост Пост: #1 от 03-Окт-2014 06:35

[Цитировать]

Вечный "Ноль" / The Eternal Zero / Eien no Zero / 永遠の0
Страна: Япония
Жанр: военный, драма
Год выпуска: 2013
Продолжительность: 02:23:25
Перевод: Одноголосый закадровый den904
Cубтитры: нет
Режиссер: Такаси Ямадзаки / Takashi Yamazaki
В ролях: Мао Иноэ, Харума Миура, Джуничи Окада, Шота Сомея, Джан Фубуки, Исао Натсуяги, Кадзуэ Фукииси, Гаку Хамада, Исао Хасидзумэ, Микидзиро Хира.
Описание: История начинается много лет назад. В центре внимания японский летчик-камикадзе времен Второй мировой войны Кюзо Миябэ. Молодой человек служит в спецподразделении военно-воздушных сил империи и погибает в бою над водами Тихого океана. Десятилетия спустя его внуки начинает собирать о нем информацию и обнаруживают много интересных и неожиданных фактов.
Внучка Миябэ, Кейко Саеки — молодая преуспевающая писательница. За основу своего нового романа о военных событиях середины прошлого века она хочет взять историю жизни своего погибшего деда и просит младшего брата помочь ей. Заодно она надеется, что это отвлечет Кентаро от его личных проблем. Дело в том, что молодой человек всю свою жизнь мечтал о карьере адвоката, однако, уже несколько раз подряд он проваливает государственные экзамены и после очередной неудачи совсем опустил руки и не знает, что делать дальше. Неожиданно для себя молодые люди узнают от сослуживцев своего деда, что тот с одной стороны был великолепным летчиком, а с другой - больше всего на свете боялся смерти. Тогда, как могло получиться, что самый трусливый человек в Японии, записался в войска специального назначения в разгар Второй мировой войны и, таким образом, оказался в гуще сражений? Постепенно Кейко и Кентаро получают все больше информации о жизни своего деда и шокирующие факты, скрытые на протяжении более полувека, наконец, проливают свет на череду трагических событий того времени...
Картина снята по одноименному роману Наоки Хякуто, опубликованному в 2006 году и проданному тиражом в более 1 млн. копий.
Доп. информация: Доп. информация: DVDRip by alf62
Большое СПАСИБО за работу над фильмом целому коллективу:
- за субтитры, по которым сделано озвучивание: Yuli4ka_Daisuke;
- за озвучивание: den904;
- инициаторам организации перевода: alinto, jasenka, Arias, Der eiserne Wolf, babek555, Cybernn, Lentyai80, Drenkens, Nmaska;
- за наложение чистого голоса на оригинальную дорогу: Нордер;
- за первоисточник DVD: alinto: [url=http://***/forum/viewtopic.php?t=4809419]http://***/forum/viewtopic.php?t=4809419[/url]
Перевод: Любительский одноголосый (den904)

Качество видео: DVDRip
Формат видео: AVI
Видео: 720x304 (2.37:1), 23.976 fps, DivX , 1786 kbps avg, 0.37 bit/pixel
Аудио: 48 kHz, AC3 Dolby Digital, 2/0 (L,R) ch, ~192.00 kbps avg
MediaInfo
Вечный ноль The Eternal Zero\Vechnyj.nol.2013.DivX.DVDRip.alf62.avi
Формат : AVI
Формат/Информация : Audio Video Interleave
Профиль формата : OpenDML
Размер файла : 2,14 Гбайт
Продолжительность : 2 ч. 23 м.
Общий поток : 2139 Кбит/сек
Программа кодирования : VirtualDubModRus 1.5.10.2 (build 2542/release)
Библиотека кодирования : VirtualDubMod build 2542/release
Видео
Идентификатор : 0
Формат : MPEG-4 Visual
Профиль формата : Advanced Simple@L5
Параметр BVOP формата : 2
Параметр QPel формата : Нет
Параметр GMC формата : Без точки перехода
Параметр матрицы формата : Default (MPEG)
Идентификатор кодека : DX50
Идентификатор кодека/Подсказка : DivX 5
Продолжительность : 2 ч. 23 м.
Битрейт : 1935 Кбит/сек
Ширина : 720 пикселей
Высота : 304 пикселя
Соотношение сторон : 2,35:1
Частота кадров : 23,976 кадра/сек
Цветовое пространство : YUV
Субдискретизация насыщенности : 4:2:0
Битовая глубина : 8 бит
Тип развёртки : Прогрессивная
Метод сжатия : С потерями
Бит/(Пиксели*Кадры) : 0.369
Размер потока : 1,94 Гбайт (90%)
Библиотека кодирования : XviD 73
Аудио
Идентификатор : 1
Формат : AC-3
Формат/Информация : Audio Coding 3
Расширение режима : CM (complete main)
Параметр Endianness формата : Big
Идентификатор кодека : 2000
Продолжительность : 2 ч. 23 м.
Вид битрейта : Постоянный
Битрейт : 192 Кбит/сек
Каналы : 2 канала
Расположение каналов : Front: L R
Частота : 48,0 КГц
Битовая глубина : 16 бит
Метод сжатия : С потерями
Размер потока : 197 Мбайт (9%)
Выравнивание : Разделение по промежуткам
Продолжительность промежутка : 42 мс. (1,00 видеокадр)
Время предзагрузки промежутка : 500 мс.
Скриншот c названием фильма Скриншоты
Скачать

Скачать торрент! Вечный "Ноль" / The Eternal Zero / Eien no Zero / 永遠の0 (Такаси Ямадзаки / Takashi Yamazaki) [2013, Япония, военный, драма, DVDRip] VO (den904)

Как скачивать? · Что такое торрент? · Рейтинг и ограничения

Сайт не распространяет и не хранит электронные версии произведений, а лишь предоставляет доступ к создаваемому пользователями каталогу ссылок на торрент-файлы, которые содержат только списки хеш-сумм

[Профиль] [ЛС]
Показать сообщения:    
Ответить на тему

Текущее время: Сегодня 15:15

Часовой пояс: GMT + 4



Вы не можете начинать темы
Вы не можете отвечать на сообщения
Вы не можете редактировать свои сообщения
Вы не можете удалять свои сообщения
Вы не можете голосовать в опросах
Вы не можете прикреплять файлы к сообщениям
Вы не можете скачивать файлы