Игра их жизни / The Game of Their Lives (Дэвид Анспо / David Anspaugh) [2005, США, драма, история, спорт, HDTV 1080i] DVO

Ответить на тему
 
Автор Сообщение

user ®

Стаж: 7 лет 7 месяцев

Сообщений: 20008

Пост Пост: #1 от 03-Окт-2014 06:35

[Цитировать]

Игра их жизни / The Game of Their Lives«America's finest moment in the world's greatest game» Страна: США
Жанр: драма, история, спорт
Год выпуска: 2005
Продолжительность: 01:37:05
Перевод: Любительский (двухголосый закадровый)
Cубтитры: нет
Режиссер: Дэвид Анспо / David Anspaugh
В ролях: Джерард Батлер, Патрик Стюарт, Костас Мэндилор, Луис Мэндилор, Джон Рис-Дэвис, Уэс Бентли, Джей Родан, Гэвин Россдэйл, Закари Ти Брайан, Джимми Жан-Луи, Ричард Дженик, Нельсон Варгас, Билл Смитрович, Терри Кинни, Мария Бертран
Описание: Одной из главных сенсаций чемпионата мира по футболу 1950 года, проходившего в Бразилии, стало поражение, которое именитая сборная Англии потерпела от сборной США, укомплектованной игроками-любителями. Несмотря на то, что американская команда тогда не смогла даже приблизиться к заветному Кубку Мира, победа со счетом 1:0 вошла в историю. И это не удивительно. Лондонские букмекеры принимали ставки на победу американцев над англичанами из расчета 500:1, а газета New York Times поначалу даже не стала публиковать результат матча, сочтя информацию о победе сбoрной США ложной. Фильм рассказывает историю создания той легендарной команды…
Сэмпл: http://sendfile.su/1029606

Тип релиза: HDTV 1080i
Контейнер: TS
Видео: AVC/H.264, PAL, 1920x1080 (16:9), 8607 Кбит/сек, 25.000 fps
Аудио: русский, MP-2, 48000 Hz, 192 Кбит/сек, 2 ch
MediaInfo
Общее
Идентификатор : 1 (0x1)
Полное имя : C:\Documents and Settings\Администратор\Мои документы\Игра их жизни.ts
Формат : MPEG-TS
Размер файла : 6,28 Гбайт
Продолжительность : 1 ч. 37 м.
Режим общего битрейта : Переменный
Общий поток : 9258 Кбит/сек
Видео
Идентификатор : 4113 (0x1011)
Идентификатор меню : 1 (0x1)
Формат : AVC
Формат/Информация : Advanced Video Codec
Профиль формата : Main@L4.0
Параметр CABAC формата : Да
Параметр ReFrames формата : 3 кадра
Идентификатор кодека : 27
Продолжительность : 1 ч. 37 м.
Вид битрейта : Переменный
Битрейт : 8607 Кбит/сек
Максимальный битрейт : 40,0 Мбит/сек
Ширина : 1920 пикселей
Высота : 1080 пикселей
Соотношение сторон : 16:9
Частота кадров : 25,000 кадров/сек
Стандарт вещания : Component
Цветовое пространство : YUV
Субдискретизация насыщенности : 4:2:0
Битовая глубина : 8 бит
Тип развёртки : Чересстрочная
Порядок развёртки : Верхнее поле первое
Бит/(Пиксели*Кадры) : 0.166
Размер потока : 5,84 Гбайт (93%)
Аудио
Идентификатор : 4352 (0x1100)
Идентификатор меню : 1 (0x1)
Формат : MPEG Audio
Версия формата : Version 1
Профиль формата : Layer 2
Идентификатор кодека : 3
Продолжительность : 1 ч. 37 м.
Вид битрейта : Постоянный
Битрейт : 192 Кбит/сек
Каналы : 2 канала
Частота : 48,0 КГц
Метод сжатия : С потерями
Размер потока : 133 Мбайт (2%)
Язык : Russian
Скриншот c названием фильма Скриншоты
Скачать

Скачать торрент!

Как скачивать? · Что такое торрент? · Рейтинг и ограничения

Сайт не распространяет и не хранит электронные версии произведений, а лишь предоставляет доступ к создаваемому пользователями каталогу ссылок на торрент-файлы, которые содержат только списки хеш-сумм

[Профиль] [ЛС]
Показать сообщения:    
Ответить на тему

Текущее время: Сегодня 23:40

Часовой пояс: GMT + 4



Вы не можете начинать темы
Вы не можете отвечать на сообщения
Вы не можете редактировать свои сообщения
Вы не можете удалять свои сообщения
Вы не можете голосовать в опросах
Вы не можете прикреплять файлы к сообщениям
Вы не можете скачивать файлы