Открытые окна / Open Windows (Начо Вигалондо / Nacho Vigalondo) [2014, США, Испания, Триллер, WEB-DLRip] Dub [звук с TS]

Ответить на тему
 
Автор Сообщение

user ®

Стаж: 7 лет 7 месяцев

Сообщений: 20008

Пост Пост: #1 от 03-Окт-2014 06:35

[Цитировать]

Открытые окна / Open Windows
Страна: США, Испания, Apaches Entertainment, Atresmedia Cine, La Panda
Жанр: Триллер
Год выпуска: 2014
Продолжительность: 01:28:32
Перевод: Профессиональный (дублированный) [звук с TS]
Cубтитры: нет
Режиссер: Начо Вигалондо / Nacho Vigalondo
В ролях: Элайджа Вуд, Саша Грэй, Нил Мэскелл, Начо Вигалондо, Иван Гонсалес, Рэйчел Ариефф, Треванте Родс, Хайме Олиас, МакКатчен, Улисс Лопес
Описание:
Ник — фанат актрисы Джилл Годдард и редактор ее неофициального сайта. Он выигрывает конкурс, главный приз в котором — ужин со звездой после презентации ее нового фильма. Во время онлайн репортажа с презентации, которая транслируется через сайт Ника, раздается звонок и человек, представившийся Кордом, объявляет ему, что ужин отменен. Ник даже не подозревает, что стал пешкой в игре, цель которой — убийство Джилл…
Сэмпл: http://sendfile.su/1030206
Качество видео: WEB-DLRip
Формат видео: AVI
Видео: 720x400 (1.80:1), 24 fps, XviD build 50 ~1875 kbps , 0.27 bit/pixel
Аудио: 48 kHz, AC3 Dolby Digital, 2/0 (L,R) ch, ~192 kbps
MediaInfo
Общее
Полное имя : Otkrytye.Okna.2014.Dt.WEBDLRip.1400MB.avi
Формат : AVI
Формат/Информация : Audio Video Interleave
Размер файла : 1,46 Гбайт
Продолжительность : 1 ч. 40 м.
Общий поток : 2077 Кбит/сек
Программа кодирования : VirtualDubMod 1.5.10.2 (build 2540/release)
Библиотека кодирования : VirtualDubMod build 2540/release
Видео
Идентификатор : 0
Формат : MPEG-4 Visual
Профиль формата : Advanced Simple@L5
Параметр BVOP формата : 2
Параметр QPel формата : Нет
Параметр GMC формата : Без точки перехода
Параметр матрицы формата : Default (MPEG)
Идентификатор кодека : XVID
Идентификатор кодека/Подсказка : XviD
Продолжительность : 1 ч. 40 м.
Битрейт : 1876 Кбит/сек
Ширина : 720 пикселей
Высота : 400 пикселей
Соотношение сторон : 16:9
Частота кадров : 24,000 кадра/сек
Цветовое пространство : YUV
Субдискретизация насыщенности : 4:2:0
Битовая глубина : 8 бит
Тип развёртки : Прогрессивная
Метод сжатия : С потерями
Бит/(Пиксели*Кадры) : 0.271
Размер потока : 1,32 Гбайт (90%)
Библиотека кодирования : XviD 1.2.1 (UTC 2008-12-04)
Аудио
Идентификатор : 1
Формат : AC-3
Формат/Информация : Audio Coding 3
Расширение режима : CM (complete main)
Параметр Endianness формата : Big
Идентификатор кодека : 2000
Продолжительность : 1 ч. 40 м.
Вид битрейта : Постоянный
Битрейт : 192 Кбит/сек
Каналы : 2 канала
Расположение каналов : Front: L R
Частота : 48,0 КГц
Битовая глубина : 16 бит
Метод сжатия : С потерями
Размер потока : 138 Мбайт (9%)
Выравнивание : Разделение по промежуткам
Продолжительность промежутка : 42 мс. (1,00 видеокадр)
Время предзагрузки промежутка : 500 мс.
Скриншот c названием фильма
Не могу поймать его в фильме. Если кто-нибудь поможет - буду благодарен
Скриншоты
Скачать

Скачать торрент!

Как скачивать? · Что такое торрент? · Рейтинг и ограничения

Сайт не распространяет и не хранит электронные версии произведений, а лишь предоставляет доступ к создаваемому пользователями каталогу ссылок на торрент-файлы, которые содержат только списки хеш-сумм

[Профиль] [ЛС]
Показать сообщения:    
Ответить на тему

Текущее время: Сегодня 06:22

Часовой пояс: GMT + 4



Вы не можете начинать темы
Вы не можете отвечать на сообщения
Вы не можете редактировать свои сообщения
Вы не можете удалять свои сообщения
Вы не можете голосовать в опросах
Вы не можете прикреплять файлы к сообщениям
Вы не можете скачивать файлы