Если твоя девушка – зомби / Life After Beth (Джефф Баэна / Jeff Baena) [2014, США, ужасы, мелодрама, комедия, WEB-DLRip] Dub (iTunes)

Ответить на тему
 
Автор Сообщение

user ®

Стаж: 7 лет 7 месяцев

Сообщений: 20008

Пост Пост: #1 от 02-Окт-2014 15:10

[Цитировать]

Если твоя девушка – зомби / Life After Beth
Страна: США
Жанр: ужасы, мелодрама, комедия
Год выпуска: 2014
Продолжительность: 01:28:33
Перевод: Профессиональный (дублированный) iTunes
Cубтитры: нет
Оригинальная аудиодорожка: нет
Режиссер: Джефф Баэна / Jeff Baena
В ролях: Дэйн ДеХаан, Джон Си Райли, Обри Плаза, Молли Шеннон, Шерил Хайнс, Пол Райзер, Мэттью Грей Гублер, Анна Кендрик, Эва Ла Даре, Томас МакДонелл
Описание: Когда у Зака умирает его девушка, он безутешен. Однако вскоре, неожиданно для всех, она чудесным образом возвращается, но в новом качестве — она теперь зомби! Поскольку внешне девушка пока мало чем отличается от себя прежней, а Зак все еще любит ее, он с радостью принимает ее к себе в дом. Правда теперь ему придется смириться с некоторыми ее новыми привычками…
Доп. информация:

Сэмпл: http://multi-up.com/1003281
Качество видео: WEB-DLRip
Формат видео: AVI
Видео: 640x352 (1.82:1), 24.000 fps, XviD build 50 ~967 kbps avg, 0.18 bit/pixel
Аудио: 48 kHz, MPEG Layer 3, 2 ch, ~128.00 kbps avg
MediaInfo
General
Complete name : C:\Users\Вика\Desktop\Life.Аfter.Beth.WEB-DLRip.2014.avi
Format : AVI
Format/Info : Audio Video Interleave
File size : 700 MiB
Duration : 1h 28mn
Overall bit rate : 1 105 Kbps
Writing application : VirtualDubMod 1.5.10.3 | www.virtualdub-fr.org || (build 2550/release)
Writing library : VirtualDubMod build 2550/release
Video
ID : 0
Format : MPEG-4 Visual
Format profile : Advanced Simple@L5
Format settings, BVOP : Yes
Format settings, QPel : No
Format settings, GMC : No warppoints
Format settings, Matrix : Default (MPEG)
Codec ID : XVID
Codec ID/Hint : XviD
Duration : 1h 28mn
Bit rate : 968 Kbps
Width : 640 pixels
Height : 352 pixels
Display aspect ratio : 16:9
Frame rate : 24.000 fps
Color space : YUV
Chroma subsampling : 4:2:0
Bit depth : 8 bits
Scan type : Progressive
Compression mode : Lossy
Bits/(Pixel*Frame) : 0.179
Stream size : 613 MiB (88%)
Writing library : XviD 1.2.1 (UTC 2008-12-04)
Audio
ID : 1
Format : MPEG Audio
Format version : Version 1
Format profile : Layer 3
Codec ID : 55
Codec ID/Hint : MP3
Duration : 1h 28mn
Bit rate mode : Constant
Bit rate : 128 Kbps
Channel count : 2 channels
Sampling rate : 48.0 KHz
Compression mode : Lossy
Stream size : 81.1 MiB (12%)
Alignment : Aligned on interleaves
Interleave, duration : 42 ms (1.00 video frame)
Interleave, preload duration : 504 ms
Writing library : LAME3.99r
Encoding settings : -m s -V 4 -q 2 -lowpass 17 -b 128
Скриншоты
Скачать

Скачать торрент!

Как скачивать? · Что такое торрент? · Рейтинг и ограничения

Сайт не распространяет и не хранит электронные версии произведений, а лишь предоставляет доступ к создаваемому пользователями каталогу ссылок на торрент-файлы, которые содержат только списки хеш-сумм

[Профиль] [ЛС]
Показать сообщения:    
Ответить на тему

Текущее время: Сегодня 16:23

Часовой пояс: GMT + 4



Вы не можете начинать темы
Вы не можете отвечать на сообщения
Вы не можете редактировать свои сообщения
Вы не можете удалять свои сообщения
Вы не можете голосовать в опросах
Вы не можете прикреплять файлы к сообщениям
Вы не можете скачивать файлы