Вечный ноль / Eien no 0 / The Eternal Zero (Такаси Ямадзаки / Takashi Yamazaki) [2013, Япония, военный, DVDRip] VO (den904)

Ответить на тему
 
Автор Сообщение

user ®

Стаж: 13 лет

Сообщений: 15071

Пост Пост: #1 от 02-Окт-2014 08:45

[Цитировать]

Вечный ноль / Eien no 0 / The Eternal Zero
Страна: Япония
Жанр: военный
Год выпуска: 2013
Продолжительность: 02:23:25
Перевод: Одноголосый закадровый den904 по субтитрам Yuli4ka_Daisuke
Cубтитры: нет
Оригинальная аудиодорожка: нет
Режиссер: Такаси Ямадзаки / Takashi Yamazaki
В ролях: Мин Танака, Харума Миура, Мао Иноэ, Боб Верли, , Исао Натсуяги,Шота Сометани, Джуничи Окада, Микидзиро Хира, Кадзуэ Фукииси, Хирофуми Арай
Описание: Молодой Кентаро проваливает свой экзамен на право заниматься адвокатской практикой и не знает, что делать дальше. Его старшая сестра Кейко является свободной писательницей. Вместе они начинают искать информацию о своем дедушке Кюзо, который погиб во время Второй мировой войны.
Доп. информация:

Сэмпл: http://multi-up.com/1003212
Качество видео: DVDRip
Формат видео: AVI
Видео: 720x304 (2.37:1), 23.976 fps, XviD build 50 ~1168 kbps avg, 0.22 bit/pixel
Аудио: 48 kHz, AC3 Dolby Digital, 2/0 (L,R) ch, ~192 kbps
MediaInfo
General
Complete name : C:\Users\Вика\Desktop\Еien.no.zero.DVDRip.2013.avi
Format : AVI
Format/Info : Audio Video Interleave
File size : 1.37 GiB
Duration : 2h 23mn
Overall bit rate : 1 370 Kbps
Writing application : VirtualDubMod 1.5.10.3 | www.virtualdub-fr.org || (build 2550/release)
Writing library : VirtualDubMod build 2550/release
Video
ID : 0
Format : MPEG-4 Visual
Format profile : Advanced Simple@L5
Format settings, BVOP : Yes
Format settings, QPel : No
Format settings, GMC : No warppoints
Format settings, Matrix : Default (MPEG)
Codec ID : DX50
Codec ID/Hint : DivX 5
Duration : 2h 23mn
Bit rate : 1 169 Kbps
Width : 720 pixels
Height : 304 pixels
Display aspect ratio : 2.35:1
Frame rate : 23.976 fps
Color space : YUV
Chroma subsampling : 4:2:0
Bit depth : 8 bits
Scan type : Progressive
Compression mode : Lossy
Bits/(Pixel*Frame) : 0.223
Stream size : 1.17 GiB (85%)
Writing library : XviD 1.2.1 (UTC 2008-12-04)
Audio
ID : 1
Format : AC-3
Format/Info : Audio Coding 3
Mode extension : CM (complete main)
Format settings, Endianness : Big
Codec ID : 2000
Duration : 2h 23mn
Bit rate mode : Constant
Bit rate : 192 Kbps
Channel count : 2 channels
Channel positions : Front: L R
Sampling rate : 48.0 KHz
Bit depth : 16 bits
Compression mode : Lossy
Stream size : 197 MiB (14%)
Alignment : Split accross interleaves
Interleave, duration : 42 ms (1.00 video frame)
Interleave, preload duration : 500 ms
Скриншот c названием фильма Скриншоты
Скачать

Скачать торрент! Вечный ноль / Eien no 0 / The Eternal Zero (Такаси Ямадзаки / Takashi Yamazaki) [2013, Япония, военный, DVDRip] VO (den904)

Как скачивать? · Что такое торрент? · Рейтинг и ограничения

Сайт не распространяет и не хранит электронные версии произведений, а лишь предоставляет доступ к создаваемому пользователями каталогу ссылок на торрент-файлы, которые содержат только списки хеш-сумм

[Профиль] [ЛС]
Показать сообщения:    
Ответить на тему

Текущее время: Сегодня 11:31

Часовой пояс: GMT + 4



Вы не можете начинать темы
Вы не можете отвечать на сообщения
Вы не можете редактировать свои сообщения
Вы не можете удалять свои сообщения
Вы не можете голосовать в опросах
Вы не можете прикреплять файлы к сообщениям
Вы не можете скачивать файлы