Онирика. Собачье поле / Onirica. Field of dogs / Onirica. Psie pole (Лех Маевский / Lech Majewski) [2014, Польша, Италия, Швеция, драма, фантасмагория, DVDRip] Sub Rus (Professor) + Original

Ответить на тему
 
Автор Сообщение

user ®

Стаж: 7 лет 7 месяцев

Сообщений: 20008

Пост Пост: #1 от 02-Окт-2014 02:25

[Цитировать]

Онирика. Собачье поле / Onirica. Field of dogs / Onirica. Psie pole
Страна: Польша, Италия, Швеция
Жанр: драма, фантасмагория
Год выпуска: 2014
Продолжительность: 01:38:54
Перевод: Субтитры Professor
Cубтитры: русские
Оригинальная аудиодорожка: польский, итальянский
Режиссер: Лех Маевский / Lech Majewski
В ролях: Михал Татарек, Эльжбета Окупская, Анна Мелчарек, Яценты Ендрусик, Шимон Будзик
Описание: Отец вспахивает магазин на волах, плуг срезает черепицу. Лес полон мертвецов, Ниагара низвергается на церковный алтарь. Вот какие видения преследуют Адама, поэта, потерявшего свою возлюбленную в автокатастрофе. Национальная трагедия накладывается на личную. Год 2010, библейский год для Польши, с наводнениями, пожарами, оползнями, авиакатастрофой, в которой погибла вся элита страны. Адам увольняется с должности профессора литературы и идёт работать кассиром в супермаркет. Но он хочет только спать, спасаясь от болезненной действительности.
Доп. информация:

Сэмпл: https://www.sendspace.com/file/92kxlp
Качество видео: DVDRip
Формат видео: AVI
Видео: XviD, 640х336, 1.905, 25.000 fps, 854 Kbps
Аудио: MP3, 48.0 KHz, 128 Kbps, 2 channels
Формат субтитров: softsub (SRT)
MediaInfo
General
Complete name : Onirica Psie Pole.DVDRiP.XViD-KOKOSPOKO.avi
Format : AVI
Format/Info : Audio Video Interleave
File size : 700 MiB
Duration : 1h 38mn
Overall bit rate mode : Variable
Overall bit rate : 990 Kbps
Writing application : VirtualDubMod 1.5.10.2 (build 2540/release)
Writing library : VirtualDubMod build 2540/release
Video
ID : 0
Format : MPEG-4 Visual
Format profile : Advanced Simple@L5
Format settings, BVOP : 2
Format settings, QPel : No
Format settings, GMC : No warppoints
Format settings, Matrix : Default (H.263)
Muxing mode : Packed bitstream
Codec ID : XVID
Codec ID/Hint : XviD
Duration : 1h 38mn
Bit rate : 854 Kbps
Width : 640 pixels
Height : 336 pixels
Display aspect ratio : 1.905
Frame rate : 25.000 fps
Color space : YUV
Chroma subsampling : 4:2:0
Bit depth : 8 bits
Scan type : Progressive
Compression mode : Lossy
Bits/(Pixel*Frame) : 0.159
Stream size : 604 MiB (86%)
Writing library : XviD 64
Audio
ID : 1
Format : MPEG Audio
Format version : Version 1
Format profile : Layer 3
Mode : Joint stereo
Codec ID : 55
Codec ID/Hint : MP3
Duration : 1h 38mn
Bit rate mode : Variable
Bit rate : 128 Kbps
Channel(s) : 2 channels
Sampling rate : 48.0 KHz
Compression mode : Lossy
Stream size : 87.1 MiB (12%)
Alignment : Aligned on interleaves
Interleave, duration : 24 ms (0.60 video frame)
Interleave, preload duration : 149 ms
Writing library : LAME3.90.
Encoding settings : -m j -V 4 -q 2 -lowpass 17.6 --abr 128
Скриншот c названием фильма Скриншоты Пример субтитров
156
00:30:19,930 --> 00:30:21,440
Дорогой, скажи, почему...
157
00:30:21,440 --> 00:30:26,252
...ты, поэт, специалист по модернизму,
работаешь в гипермаркете?
158
00:30:27,743 --> 00:30:29,381
Я тебе, тетя,
потом расскажу
159
00:30:30,164 --> 00:30:32,500
Но ты всегда можешь
вернуться в университет...
160
00:30:32,762 --> 00:30:35,600
...и читать лекции о этих
своих символистах
161
00:30:37,941 --> 00:30:39,936
Слушай, ты же
ни с кем не общаешься
162
00:30:40,825 --> 00:30:42,968
Как это? Вот, к тебе прихожу
163
00:30:44,353 --> 00:30:45,456
Это обязанность для тебя
164
00:30:47,002 --> 00:30:49,562
У меня нет никаких обязанностей,
только выбор
165
00:30:52,332 --> 00:30:53,629
Мне так тебя жаль
166
00:30:55,604 --> 00:30:57,183
Если бы твои родители
были живы
167
00:31:00,901 --> 00:31:02,341
А теперь еще
и эта трагедия
168
00:31:07,364 --> 00:31:08,694
Жаль, что все так
169
00:31:10,269 --> 00:31:11,852
Строители дороги...
170
00:31:13,343 --> 00:31:16,235
...разрушили природу,
и теперь природа отплатила нам...
171
00:31:16,896 --> 00:31:18,046
...искалеченными телами...
172
00:31:18,985 --> 00:31:20,277
...в авариях
173
00:31:22,867 --> 00:31:24,787
Забудь их, забудь...
174
00:31:26,210 --> 00:31:27,313
...Басю и Камиля
175
00:31:28,618 --> 00:31:30,940
Твою любовь и твоего
лучшего друга
176
00:31:32,791 --> 00:31:35,183
Заказала поминовение
их бедных душ
177
00:31:37,962 --> 00:31:39,781
Когда последний раз
был в церкви?
Скачать

Скачать торрент!

Как скачивать? · Что такое торрент? · Рейтинг и ограничения

Сайт не распространяет и не хранит электронные версии произведений, а лишь предоставляет доступ к создаваемому пользователями каталогу ссылок на торрент-файлы, которые содержат только списки хеш-сумм

[Профиль] [ЛС]
Показать сообщения:    
Ответить на тему

Текущее время: Сегодня 20:18

Часовой пояс: GMT + 4



Вы не можете начинать темы
Вы не можете отвечать на сообщения
Вы не можете редактировать свои сообщения
Вы не можете удалять свои сообщения
Вы не можете голосовать в опросах
Вы не можете прикреплять файлы к сообщениям
Вы не можете скачивать файлы