Два лика января / The Two Faces of January (Хуссейн Амини / Hossein Amini) [2014, Великобритания, Франция, США, триллер, BDRip 1080p] MVO ("Paradox") + VO (datynet) + 5x Sub (Rus, Eng) + Original Eng, Gre, Tur

Ответить на тему
 
Автор Сообщение

user ®

Стаж: 7 лет 7 месяцев

Сообщений: 20008

Пост Пост: #1 от 01-Окт-2014 23:15

[Цитировать]

Два лика января / The Two Faces of January
Страна: Великобритания, Франция, США
Жанр: триллер
Год выпуска: 2014
Продолжительность: 01:36:37
Перевод 1: Любительский (многоголосый закадровый) "Paradox"
Перевод 2: Одноголосый закадровый datynet
Cубтитры: русские (Full, Forced), английские (Full, Forced, SDH)
Оригинальная аудиодорожка: английский, греческий, турецкий
-
Режиссер: Хуссейн Амини / Hossein Amini
В ролях: Кирстен Данст, Вигго Мортенсен, Оскар Айзек, Дэйзи Беван, Дэвид Уоршофски, Промитеас Алиферопулос, Иигит Озшенер, Никос Мавракис, Сократ Алафоуцос, Озан Тас
-
Описание: Начало 60-х 20-го века. В Афины приезжает блестящая гламурная пара — харизматичный Честер МакФарланд и его молодая жена Колетта. Во время осмотра Акрополя они знакомятся с юным американским гидом Райдалом. Однако паре есть что скрывать, и вскоре резкий поворот событий вынуждает их пуститься в бега. Новый знакомый соглашается им помочь, но он еще не представляет, в какую передрягу себя втягивает...

Тип релиза: BDRip 1080p
Контейнер: MKV
Видео: H.264 / NTSC 16:9 / 1920x804 (2,40:1) / 13717 kbps / 23,976 fps / 0.369 bit/pixel / High@L4.1
Аудио 1: Russian / AC3 / 48 kHz / 5.1 Ch / 384 kbps / 16 bit / MVO
Аудио 2: Russian / AC3 / 44,1 kHz / 2 Ch / 192 kbps / 16 bit / VO
Аудио 3: English, Greek, Turkish / DTS / 48 kHz / 5.1 Ch / 1509 kbps / 24 bit / Original
Формат субтитров: softsub (SRT)
Навигация по главам: есть

Доп.инфо
Русские субтитры набил в воркшопе, по переводу Janetta. Форсированные сабы на греческий язык.
Сэмпл MediaInfo
Общее
Уникальный идентификатор : 222669687154181371610851212012180088567 (0xA7849F2F9462C8E0BDD7A3F151B226F7)
Полное имя : D:\The Two Faces of January.2014.BDRip.1080p.mkv
Формат : Matroska
Версия формата : Version 4 / Version 2
Размер файла : 10,8 Гбайт
Продолжительность : 1 ч. 36 м.
Общий поток : 16,1 Мбит/сек
Дата кодирования : UTC 2014-09-29 19:34:13
Программа кодирования : mkvmerge v7.2.0 ('On Every Street') 64bit built on Sep 13 2014 15:52:10
Библиотека кодирования : libebml v1.3.0 + libmatroska v1.4.1
_STATISTICS_WRITING_APP : mkvmerge v7.2.0 ('On Every Street') 64bit built on Sep 13 2014 15:52:10
_STATISTICS_WRITING_DATE_UTC : 2014-09-29 19:34:13
_STATISTICS_TAGS : BPS DURATION NUMBER_OF_FRAMES NUMBER_OF_BYTES
DURATION : 01:09:53.439000000
NUMBER_OF_FRAMES : 65
NUMBER_OF_BYTES : 4714
Видео
Идентификатор : 1
Формат : AVC
Формат/Информация : Advanced Video Codec
Профиль формата : High@L4.1
Параметр CABAC формата : Да
Параметр ReFrames формата : 5 кадров
Идентификатор кодека : V_MPEG4/ISO/AVC
Продолжительность : 1 ч. 36 м.
Битрейт : 13,7 Мбит/сек
Ширина : 1920 пикселей
Высота : 804 пикселя
Соотношение сторон : 2,40:1
Режим частоты кадров : Постоянный
Частота кадров : 23,976 кадра/сек
Цветовое пространство : YUV
Субдискретизация насыщенности : 4:2:0
Битовая глубина : 8 бит
Тип развёртки : Прогрессивная
Бит/(Пиксели*Кадры) : 0.369
Размер потока : 9,22 Гбайт (85%)
Библиотека кодирования : x264 core 142 r2479 dd79a61
Настройки программы : cabac=1 / ref=5 / deblock=1:-3:-3 / analyse=0x3:0x133 / me=umh / subme=10 / psy=1 / psy_rd=0.95:0.00 / mixed_ref=1 / me_range=48 / chroma_me=1 / trellis=2 / 8x8dct=1 / cqm=0 / deadzone=21,11 / fast_pskip=1 / chroma_qp_offset=-2 / threads=6 / lookahead_threads=1 / sliced_threads=0 / nr=0 / decimate=1 / interlaced=0 / bluray_compat=0 / constrained_intra=0 / bframes=8 / b_pyramid=2 / b_adapt=2 / b_bias=0 / direct=3 / weightb=1 / open_gop=0 / weightp=2 / keyint=250 / keyint_min=23 / scenecut=40 / intra_refresh=0 / rc_lookahead=150 / rc=crf / mbtree=0 / crf=17.5 / qcomp=0.70 / qpmin=0 / qpmax=69 / qpstep=4 / vbv_maxrate=50000 / vbv_bufsize=62500 / crf_max=0.0 / nal_hrd=none / filler=0 / ip_ratio=1.20 / pb_ratio=1.10 / aq=1:0.75
Язык : English
Default : Да
Forced : Нет
_STATISTICS_WRITING_APP : mkvmerge v7.2.0 ('On Every Street') 64bit built on Sep 13 2014 15:52:10
_STATISTICS_WRITING_DATE_UTC : 2014-09-29 19:34:13
_STATISTICS_TAGS : BPS DURATION NUMBER_OF_FRAMES NUMBER_OF_BYTES
DURATION : 01:36:37.751000000
NUMBER_OF_FRAMES : 139007
NUMBER_OF_BYTES : 10125327648
Аудио #1
Идентификатор : 2
Формат : AC-3
Формат/Информация : Audio Coding 3
Расширение режима : CM (complete main)
Параметр Endianness формата : Big
Идентификатор кодека : A_AC3
Продолжительность : 1 ч. 36 м.
Вид битрейта : Постоянный
Битрейт : 384 Кбит/сек
Каналы : 6 каналов
Расположение каналов : Front: L C R, Side: L R, LFE
Частота : 48,0 КГц
Битовая глубина : 16 бит
Метод сжатия : С потерями
Размер потока : 265 Мбайт (2%)
Заголовок : MVO / "Paradox"
Язык : Russian
Default : Да
Forced : Нет
Аудио #2
Идентификатор : 3
Формат : AC-3
Формат/Информация : Audio Coding 3
Расширение режима : CM (complete main)
Параметр Endianness формата : Big
Идентификатор кодека : A_AC3
Продолжительность : 1 ч. 36 м.
Вид битрейта : Постоянный
Битрейт : 192 Кбит/сек
Каналы : 2 канала
Расположение каналов : Front: L R
Частота : 44,1 КГц
Битовая глубина : 16 бит
Метод сжатия : С потерями
Размер потока : 133 Мбайт (1%)
Заголовок : VO / datynet
Язык : Russian
Default : Нет
Forced : Нет
Аудио #3
Идентификатор : 4
Формат : DTS
Формат/Информация : Digital Theater Systems
Режим : 16
Параметр Endianness формата : Big
Идентификатор кодека : A_DTS
Продолжительность : 1 ч. 36 м.
Вид битрейта : Постоянный
Битрейт : 1509 Кбит/сек
Каналы : 6 каналов
Расположение каналов : Front: L C R, Side: L R, LFE
Частота : 48,0 КГц
Битовая глубина : 24 бит
Метод сжатия : С потерями
Размер потока : 1,02 Гбайт (9%)
Заголовок : Original
Язык : English
Default : Нет
Forced : Нет
Текст #1
Идентификатор : 5
Формат : UTF-8
Идентификатор кодека : S_TEXT/UTF8
Идентификатор кодека/Информация : UTF-8 Plain Text
Заголовок : RUS / FORCED
Язык : Russian
Default : Да
Forced : Нет
Текст #2
Идентификатор : 6
Формат : UTF-8
Идентификатор кодека : S_TEXT/UTF8
Идентификатор кодека/Информация : UTF-8 Plain Text
Заголовок : RUS
Язык : Russian
Default : Нет
Forced : Нет
Текст #3
Идентификатор : 7
Формат : UTF-8
Идентификатор кодека : S_TEXT/UTF8
Идентификатор кодека/Информация : UTF-8 Plain Text
Заголовок : Original
Язык : English
Default : Нет
Forced : Нет
Текст #4
Идентификатор : 8
Формат : UTF-8
Идентификатор кодека : S_TEXT/UTF8
Идентификатор кодека/Информация : UTF-8 Plain Text
Заголовок : Original / SDH
Язык : English
Default : Нет
Forced : Нет
Текст #5
Идентификатор : 9
Формат : UTF-8
Идентификатор кодека : S_TEXT/UTF8
Идентификатор кодека/Информация : UTF-8 Plain Text
Заголовок : Original / FORCED
Язык : English
Default : Нет
Forced : Нет
Меню
00:00:00.000 : :00:00:00.000
00:04:46.036 : :00:04:46.036
00:08:28.007 : :00:08:28.007
00:13:11.040 : :00:13:11.040
00:16:26.986 : :00:16:26.986
00:19:28.959 : :00:19:28.959
00:25:28.819 : :00:25:28.819
00:31:50.617 : :00:31:50.617
00:34:41.621 : :00:34:41.621
00:40:23.921 : :00:40:23.921
00:44:58.362 : :00:44:58.362
00:51:04.520 : :00:51:04.520
00:54:33.312 : :00:54:33.312
01:00:38.844 : :01:00:38.844
01:06:48.755 : :01:06:48.755
01:10:27.223 : :01:10:27.223
01:14:32.802 : :01:14:32.802
01:18:37.546 : :01:18:37.546
01:24:58.593 : :01:24:58.593
01:30:14.618 : :01:30:14.618
Скриншоты
Скачать

Скачать торрент!

Как скачивать? · Что такое торрент? · Рейтинг и ограничения

Сайт не распространяет и не хранит электронные версии произведений, а лишь предоставляет доступ к создаваемому пользователями каталогу ссылок на торрент-файлы, которые содержат только списки хеш-сумм

[Профиль] [ЛС]
Показать сообщения:    
Ответить на тему

Текущее время: Сегодня 14:33

Часовой пояс: GMT + 4



Вы не можете начинать темы
Вы не можете отвечать на сообщения
Вы не можете редактировать свои сообщения
Вы не можете удалять свои сообщения
Вы не можете голосовать в опросах
Вы не можете прикреплять файлы к сообщениям
Вы не можете скачивать файлы