Двойник / The Double (Ричард Айоади / Richard Ayoade) [2013, Великобритания, триллер, драма, BDRip 1080p] MVO (Blu-Ray RUS) + Sub (Rus, Eng) + Original (Eng)

Ответить на тему
 
Автор Сообщение

user ®

Стаж: 7 лет 7 месяцев

Сообщений: 20008

Пост Пост: #1 от 01-Окт-2014 23:15

[Цитировать]

Двойник / The Double
Страна: Великобритания
Студия: Alcove Entertainment, Attercop Productions, British Film Institute (BFI)
Жанр: триллер, драма
Год выпуска: 2013
Продолжительность: 01:33:13
Перевод: Профессиональный (многоголосый закадровый) - Blu-Ray RUS
Cубтитры: Russian, English, English (SDH)
Оригинальная аудиодорожка: английский
Режиссер: Ричард Айоади / Richard Ayoade
В ролях: Джесси Айзенберг, Миа Васиковска, Уоллес Шоун, Ясмин Пейдж, Ноа Тейлор, Джеймс Фокс, Кэти Мориарти, Филлис Соммервиль , Гэбриэлль Дауни, Джон Коркс
Описание: Саймон — скромный работяга. На работе его не замечают, а девушка мечты игнорирует. Кажется, что так будет продолжаться вечно, но однажды в конторе появляется Джеймс, внешне — двойник Саймона, но по характеру его полная противоположность — уверенный, харизматичный плейбой. К ужасу Саймона, Джеймс потихоньку начинает забирать его жизнь.
Релиз: by madoff
Аудио: delia
Рип от EbP!
Сэмпл: http://multi-up.com/1002687
Тип релиза: BDRip 1080p
Контейнер: MKV
Видео: AVC, 1920x1036 (1.853), 23.976 fps, 13.8 Mbps (0.290 bit/pixel)
Аудио 1: Russian: 48 kHz, AC3, 3/2 (L,C,R,l,r) + LFE ch, ~640 kbps avg |Многоголосый закадровый, Blu-Ray RUS|
Аудио 2: English: 48 kHz, DTS, 3/2 (L,C,R,l,r) + LFE ch, ~768 kbps avg
Главы: есть

MediaInfo
General
Unique ID : 216958638596911677904745788558720310597 (0xA338B6C0A0105ABF9356EB8E8D531D45)
Complete name : D:\Видео\Movies\The.Double.2013.1080p.BluRay.Rus.Eng.HDCLUB.mkv
Format : Matroska
Format version : Version 2
File size : 10.1 GiB
Duration : 1h 33mn
Overall bit rate : 15.5 Mbps
Movie name : The Double (2013) - Release for HDCLUB
Encoded date : UTC 2014-09-28 21:32:08
Writing application : mkvmerge v5.7.0 ('The Whirlwind') built on Jul 8 2012 20:08:51
Writing library : libebml v1.2.3 + libmatroska v1.3.0
Video
ID : 1
Format : AVC
Format/Info : Advanced Video Codec
Format profile : High@L4.1
Format settings, CABAC : Yes
Format settings, ReFrames : 4 frames
Codec ID : V_MPEG4/ISO/AVC
Duration : 1h 33mn
Bit rate : 13.8 Mbps
Width : 1 920 pixels
Height : 1 036 pixels
Display aspect ratio : 1.85:1
Frame rate mode : Constant
Frame rate : 23.976 fps
Color space : YUV
Chroma subsampling : 4:2:0
Bit depth : 8 bits
Scan type : Progressive
Bits/(Pixel*Frame) : 0.289
Stream size : 8.98 GiB (89%)
Writing library : x264 core 142 r2453kMod ea0ca51
Encoding settings : cabac=1 / ref=4 / deblock=1:-3:-3 / analyse=0x3:0x133 / me=umh / subme=10 / psy=1 / fade_compensate=0.00 / psy_rd=1.05:0.00 / mixed_ref=1 / me_range=16 / chroma_me=1 / trellis=2 / 8x8dct=1 / cqm=0 / deadzone=21,11 / fast_pskip=0 / chroma_qp_offset=-2 / threads=12 / lookahead_threads=2 / sliced_threads=0 / nr=0 / decimate=0 / interlaced=0 / bluray_compat=0 / constrained_intra=0 / fgo=0 / bframes=9 / b_pyramid=2 / b_adapt=2 / b_bias=0 / direct=3 / weightb=1 / open_gop=0 / weightp=2 / keyint=250 / keyint_min=23 / scenecut=40 / intra_refresh=0 / rc=crf / mbtree=0 / crf=17.7000 / qcomp=0.60 / qpmin=0 / qpmax=69 / qpstep=4 / ip_ratio=1.40 / pb_ratio=1.20 / aq=3:0.70 / zones=11141,11259,crf=16.5
Language : English
Default : Yes
Forced : No
Audio #1
ID : 2
Format : AC-3
Format/Info : Audio Coding 3
Mode extension : CM (complete main)
Format settings, Endianness : Big
Codec ID : A_AC3
Duration : 1h 33mn
Bit rate mode : Constant
Bit rate : 640 Kbps
Channel count : 6 channels
Channel positions : Front: L C R, Side: L R, LFE
Sampling rate : 48.0 KHz
Bit depth : 16 bits
Compression mode : Lossy
Stream size : 427 MiB (4%)
Language : Russian
Default : Yes
Forced : No
Audio #2
ID : 3
Format : DTS
Format/Info : Digital Theater Systems
Mode : 16
Format settings, Endianness : Big
Codec ID : A_DTS
Duration : 1h 33mn
Bit rate mode : Constant
Bit rate : 768 Kbps
Channel count : 6 channels
Channel positions : Front: L C R, Side: L R, LFE
Sampling rate : 48.0 KHz
Bit depth : 24 bits
Compression mode : Lossy
Stream size : 512 MiB (5%)
Language : English
Default : No
Forced : No
Text #1
ID : 4
Format : UTF-8
Codec ID : S_TEXT/UTF8
Codec ID/Info : UTF-8 Plain Text
Language : Russian
Default : No
Forced : No
Text #2
ID : 5
Format : UTF-8
Codec ID : S_TEXT/UTF8
Codec ID/Info : UTF-8 Plain Text
Title : SDH
Language : English
Default : No
Forced : No
Text #3
ID : 6
Format : UTF-8
Codec ID : S_TEXT/UTF8
Codec ID/Info : UTF-8 Plain Text
Language : English
Default : No
Forced : No
Menu
00:00:00.000 : en:00:00:00.000
00:07:28.615 : en:00:07:28.615
00:16:15.183 : en:00:16:15.183
00:23:59.438 : en:00:23:59.438
00:31:19.544 : en:00:31:19.544
00:35:47.187 : en:00:35:47.187
00:43:11.631 : en:00:43:11.631
00:50:06.128 : en:00:50:06.128
01:00:34.589 : en:01:00:34.589
01:07:20.078 : en:01:07:20.078
01:16:39.970 : en:01:16:39.970
01:24:05.791 : en:01:24:05.791
Скриншоты
Скачать

Скачать торрент!

Как скачивать? · Что такое торрент? · Рейтинг и ограничения

Сайт не распространяет и не хранит электронные версии произведений, а лишь предоставляет доступ к создаваемому пользователями каталогу ссылок на торрент-файлы, которые содержат только списки хеш-сумм

[Профиль] [ЛС]
Показать сообщения:    
Ответить на тему

Текущее время: Сегодня 23:41

Часовой пояс: GMT + 4



Вы не можете начинать темы
Вы не можете отвечать на сообщения
Вы не можете редактировать свои сообщения
Вы не можете удалять свои сообщения
Вы не можете голосовать в опросах
Вы не можете прикреплять файлы к сообщениям
Вы не можете скачивать файлы