Принцесса Монако / Grace of Monaco (Оливье Даан / Olivier Dahan) [2014, Франция, США, Бельгия, Италия, Швейцария, Драма, мелодрама, биография, BDRip 720p] Dub + Original Eng

Ответить на тему
 
Автор Сообщение

user ®

Стаж: 7 лет 7 месяцев

Сообщений: 20008

Пост Пост: #1 от 01-Окт-2014 23:15

[Цитировать]

Принцесса Монако / Grace of Monaco
Страна: Франция, США, Бельгия, Италия, Швейцария
Студия: YRF Entertainment, Stone Angels, Silver Reel, Canal+ [fr]
Жанр: Драма, мелодрама, биография
Год выпуска: 2014
Продолжительность: 01:42:20
Перевод: Профессиональный (дублированный) Blu-Ray RUS
Cубтитры: German, German, Spanish, Dutch, Romanian
Оригинальная аудиодорожка: английский
Режиссер: Оливье Даан / Olivier Dahan
В ролях: Николь Кидман, Роджер Эштон-Гриффитс, Фрэнк Ланджелла, Тим Рот, Николас Фэррел, Дерек Джекоби, Пас Вега, Майло Вентимилья, Паркер Поузи, Джеральдин Сомервилль
Описание: Весь Голливуд лежал у ее ног — роскошные виллы, oскаровские приемы и шикарные мужчины, но она выбрала королевский дворец, аристократические балы и благородного принца из маленькой страны недалеко от Франции. Она была королевой Голливуда, но предпочла стать Принцессой Монако.

Тип релиза: BDRip 720p
Контейнер: MKV
Видео: AVC, 1280x536 (2.35:1), 24.000 fps, 6 893 Kbps (0.419 bit/pixel)
Аудио: Russian: AC3, 3/2 (L,C,R,l,r) + LFE ch, ~640.00 kbps avg
Аудио 2: English: AC3, 3/2 (L,C,R,l,r) + LFE ch, ~640.00 kbps avg
Формат субтитров: softsub (SRT)
MediaInfo
Format : Matroska
Format version : Version 2
File size : 5.99 GiB
Duration : 1h 42mn
Overall bit rate : 8 339 Kbps
Movie name : Grace of Monaco (2014) - Release for HDCLUB
Encoded date : UTC 2014-09-29 13:48:03
Writing application : mkvmerge v5.7.0 ('The Whirlwind') built on Jul 8 2012 20:08:51
Writing library : libebml v1.2.3 + libmatroska v1.3.0
Video
ID : 1
Format : AVC
Format/Info : Advanced Video Codec
Format profile : High@L4.1
Format settings, CABAC : Yes
Format settings, ReFrames : 12 frames
Codec ID : V_MPEG4/ISO/AVC
Duration : 1h 42mn
Bit rate : 6 893 Kbps
Width : 1 280 pixels
Height : 536 pixels
Display aspect ratio : 2.40:1
Frame rate mode : Constant
Frame rate : 24.000 fps
Color space : YUV
Chroma subsampling : 4:2:0
Bit depth : 8 bits
Scan type : Progressive
Bits/(Pixel*Frame) : 0.419
Stream size : 4.95 GiB (83%)
Writing library : x264 core 142 r2479kMod dd79a61
Encoding settings : cabac=1 / ref=12 / deblock=1:-3:-3 / analyse=0x3:0x133 / me=esa / subme=10 / psy=1 / fade_compensate=0.00 / psy_rd=1.00:0.05 / mixed_ref=1 / me_range=24 / chroma_me=1 / trellis=2 / 8x8dct=1 / cqm=0 / deadzone=21,11 / fast_pskip=0 / chroma_qp_offset=-3 / threads=6 / lookahead_threads=1 / sliced_threads=0 / nr=0 / decimate=1 / interlaced=0 / bluray_compat=0 / constrained_intra=0 / fgo=0 / bframes=12 / b_pyramid=2 / b_adapt=2 / b_bias=0 / direct=3 / weightb=1 / open_gop=0 / weightp=2 / keyint=250 / keyint_min=24 / scenecut=40 / intra_refresh=0 / rc_lookahead=60 / rc=crf / mbtree=0 / crf=17.5000 / qcomp=0.60 / qpmin=0 / qpmax=69 / qpstep=4 / vbv_maxrate=62500 / vbv_bufsize=78125 / crf_max=0.0 / nal_hrd=none / filler=0 / ip_ratio=1.30 / pb_ratio=1.20 / aq=1:0.80 / zones=34,890,crf=14/2273,2869,crf=14/10312,10334,crf=14/10746,10859,crf=14/16736,16797,crf=14/21634,22405,crf=14/41566,41605,crf=14/46100,48352,crf=14/64991,65084crf=14/74484,75738,crf=14/75876,76311,crf=14/100140,101046,crf=14/107477,107897,crf=14/107939,111916,crf=14/130328,130883,crf=14
Language : English
Default : Yes
Forced : No
Matrix coefficients : BT.709
Audio #1
ID : 2
Format : AC-3
Format/Info : Audio Coding 3
Mode extension : CM (complete main)
Format settings, Endianness : Big
Codec ID : A_AC3
Duration : 1h 42mn
Bit rate mode : Constant
Bit rate : 640 Kbps
Channel(s) : 6 channels
Channel positions : Front: L C R, Side: L R, LFE
Sampling rate : 48.0 KHz
Bit depth : 16 bits
Compression mode : Lossy
Stream size : 470 MiB (8%)
Title : |Дубляж, Blu-Ray RUS|
Language : Russian
Default : Yes
Forced : No
Audio #2
ID : 3
Format : AC-3
Format/Info : Audio Coding 3
Mode extension : CM (complete main)
Format settings, Endianness : Big
Codec ID : A_AC3
Duration : 1h 42mn
Bit rate mode : Constant
Bit rate : 640 Kbps
Channel(s) : 6 channels
Channel positions : Front: L C R, Side: L R, LFE
Sampling rate : 48.0 KHz
Bit depth : 16 bits
Compression mode : Lossy
Stream size : 470 MiB (8%)
Language : English
Default : No
Forced : No
Text #1
ID : 4
Format : UTF-8
Codec ID : S_TEXT/UTF8
Codec ID/Info : UTF-8 Plain Text
Title : for
Language : German
Default : No
Forced : No
Text #2
ID : 5
Format : UTF-8
Codec ID : S_TEXT/UTF8
Codec ID/Info : UTF-8 Plain Text
Language : German
Default : No
Forced : No
Text #3
ID : 6
Format : UTF-8
Codec ID : S_TEXT/UTF8
Codec ID/Info : UTF-8 Plain Text
Language : Spanish
Default : No
Forced : No
Text #4
ID : 7
Format : UTF-8
Codec ID : S_TEXT/UTF8
Codec ID/Info : UTF-8 Plain Text
Language : Dutch
Default : No
Forced : No
Text #5
ID : 8
Format : UTF-8
Codec ID : S_TEXT/UTF8
Codec ID/Info : UTF-8 Plain Text
Language : Romanian
Default : No
Forced : No
Menu
00:00:00.000 : de:GRACE'S HOCHZEIT
00:08:05.000 : de:EINE EIGENE MEINUNG
00:15:01.458 : de:NEUE FIRMEN IN MONACO
00:24:41.708 : de:UND ACTIONI
00:35:52.333 : de:EHRLICHE WORTE
00:41:20.292 : de:TELEFONAT MIT SER MUTTER
00:51:49.583 : de:VERDACHT
00:59:35.000 : de:STAATSBANKETT
01:09:14.083 : de:DER ABSCHIEDSBAIEF
01:16:44.875 : de:ROT KREUZ BALL
01:24:04.167 : de:EINE KRAFT DSE QUTEN
01:31:43.958 : de:DAS EIGENE MГ„RCHEN
Скриншоты
Скачать

Скачать торрент!

Как скачивать? · Что такое торрент? · Рейтинг и ограничения

Сайт не распространяет и не хранит электронные версии произведений, а лишь предоставляет доступ к создаваемому пользователями каталогу ссылок на торрент-файлы, которые содержат только списки хеш-сумм

[Профиль] [ЛС]
Показать сообщения:    
Ответить на тему

Текущее время: Сегодня 22:32

Часовой пояс: GMT + 4



Вы не можете начинать темы
Вы не можете отвечать на сообщения
Вы не можете редактировать свои сообщения
Вы не можете удалять свои сообщения
Вы не можете голосовать в опросах
Вы не можете прикреплять файлы к сообщениям
Вы не можете скачивать файлы