Она / Her (Спайк Джонс / Spike Jonze) [2013, США, мелодрама, драма, фантастика, BDRip 1080p] Dub + MVO + VO (Doctor Joker) + Sub Rus, Eng + Original Eng + Ukr

Ответить на тему
 
Автор Сообщение

user ®

Стаж: 7 лет 7 месяцев

Сообщений: 20008

Пост Пост: #1 от 30-Сен-2014 23:50

[Цитировать]

-Она / Her-- Страна: США
Жанр: мелодрама, драма, фантастика
Год выпуска: 2013
Продолжительность: 02:05:50-Перевод 1: Профессиональный (дублированный)
Перевод 2: Любительский (многоголосый закадровый), Студия Гараж
Перевод 3: Одноголосый закадровый, А. Матвеев
Cубтитры: русские, английские
Оригинальная аудиодорожка: английский-Режиссер: Спайк Джонс / Spike Jonze
В ролях: Хоакин Феникс, Эми Адамс, Руни Мара, Оливия Уайлд, Скарлетт Йоханссон, Линн А. Фридман, Лиза Рени Питтс, Гейб Гомез, Крис Прэтт, Артт Батлер, Мэй Линдстрём, Билл Хейдер, Кристен Уиг, Брайан Джонсон, Мэтт Летчер, Спайк Джонс-Описание: Теодор Туомбли — молодой писатель, который очень сильно переживает развод. Он и его супруга были хорошей семьей: преодолевали вместе множество препятствий, переживали трудные времена и радовались каждому счастливому моменту. Но в один миг всего этого не стало, и Теодор потерял смысл в своей жизни. Друзья всеми силами пытаются вытащить его из депрессии, знакомя с молоденькими симпатичными девушками, но Теодор оказывается не готов к новым отношениям. В один прекрасный момент он покупает новейшую операционную систему, искусственный интеллект которой максимально приближен к человеческому, и с этого момента его жизнь меняется самым кардинальным образом. Ежедневное общение с Самантой возрождает в нем желание жить, строить планы на будущее, испытывать радость...-Тип релиза: BDRip 1080p DON
Контейнер: MKV
Видео: 1920x1036 at 23.976 fps, MPEG-4 AVC, ~16553 kbps avg
Аудио 1: Russian: 48 kHz/16-bit, DTS, 3/2 (L,C,R,l,r) + LFE ch, ~1536.00 kbps avg |дублированный, BD RUS|
Аудио 2: Russian: 48 kHz/16-bit, DTS, 3/2 (L,C,R,l,r) + LFE ch, ~1536.00 kbps avg |Студия Гараж|
Аудио 3: Russian: 48 kHz/16-bit, DTS, 3/2 (L,C,R,l,r) + LFE ch, ~1536.00 kbps avg |Одноголосый закадровый А. Матвеев|
Аудио 4: Ukrainian: 48 kHz/16-bit, DTS, 3/2 (L,C,R,l,r) + LFE ch, ~1536.00 kbps avg |Профессиональный (многоголосый закадровый), Цікава ідея|
Аудио 5: English: 48 kHz/16-bit, DTS, 3/2 (L,C,R,l,r) + LFE ch, ~1536.00 kbps avg
Формат субтитров: softsub (SRT)-Сэмпл / ImDB / КинопоискИнтересно
- Во время некоторых из наиболее эмоциональных сцен Эми Адамс пела песни из известных мюзиклов («Шоу ужасов Рокки Хоррора», 1975; «Энни», 1982), для того чтобы воспрянуть духом. В итоге Хоакин Феникс присоединился к ней, и они стали петь вместе. Однако, заметив, что в это время Спайк Джонс снимает их, они прекратили песнопения.
- Основные съемки состоялись летом 2012 года. Фильм был в основном снят в Лос-Анджелесе и Шанхае.
- Это единственный фильм, в котором Спайк Джонс является и режиссером, и сценаристом. Причем сценарий фильма является оригинальным и написан полностью самим Джонсом.
- Кэри Маллиган могла достаться роль в фильме, но ей пришлось покинуть проект из-за несогласованности расписаний съемок. В итоге ее роль получила Руни Мара.
- Первоначально голос Саманты озвучивала Саманта Мортон. Она каждый день присутствовала на съемочной площадке вместе с Хоакином Фениксом. После того как съемки закончились и пришло время монтажа, Спайк Джонс почувствовал, что что-то не так. Обсудив это с Мортон и получив ее благословение, он решил взять на ее роль другую актрису. В итоге голос Саманты был полностью переозвучен Скарлетт Йоханссон.
- Друг Джонса Стивен Содерберг помог ему укоротить фильм с двух с половиной часов до двух путем повторного монтажа. На всю эту операцию ушло всего 24 часа.
- Было отснято несколько сцен с Крисом Купером, но в финальную версию фильма они не вошли.
- Эми Адамс рассказала, что Спайк Джонс через день запирал ее и Хоакина Феникса в комнате на один или два часа, тем самым заставляя их разговаривать друг с другом. Джонс делал это для того, чтобы актеры узнали друг друга получше. Адамс отметила, что благодаря этому они с Фениксом действительно хорошо сдружились.
- Хотя Саманта Мортон и не получила роль в фильме, ее именем назвали операционную систему. Также в честь Эми Адамс был назван персонаж Эми.
- Скарлетт Йоханссон ранее уже озвучивала операционную систему, которая встречалась со своим владельцем. Это было в 19-й серии второго сезона сериала «Робоцып» (2005).
- Samantha — это название программы преобразования текста в речь на компьютерах Macintosh, которая по голосу напоминает виртуального помощника Siri (также созданного компанией Apple).
- Теодор сидит в своем офисе в светло-голубой рубашке, когда Саманта говорит ему, что у него встреча через пять минут. Затем, когда он через несколько минут встречает Эми и ее парня, на нем уже красная рубашка.
- На корешке книги по физике, которую читает герой, слово «неизвестный» (unknown) написано с ошибкой (unkown).
Награды
Оскар, 2014 год
Победитель (1):
Лучший сценарий
Номинации (4):
Лучший фильм
Лучшая работа художника-постановщика
Лучшая песня— «The Moon Song»
Лучший саундтрек
Золотой глобус, 2014 год
Победитель (1):
Лучший сценарий
Номинации (2):
Лучший фильм (комедия или мюзикл)
Лучшая мужская роль (комедия или мюзикл) (Хоакин Феникс)
MediaInfo
Общее
Уникальный идентификатор                 : 221234962757266734950210992755920764758 (0xA6704DCFCBB6298D9FEB8A0A78AE7F56)
Полное имя                               : Her.2013.BDRip.1080p.mkv
Формат                                   : Matroska
Версия формата                           : Version 4 / Version 2
Размер файла                             : 21,2 Гбайт
Продолжительность                        : 2 ч. 5 м.
Общий поток                              : 24,1 Мбит/сек
Дата кодирования                         : UTC 2014-09-27 15:36:24
Программа кодирования                    : mkvmerge v6.9.1 ('Blue Panther') 64bit built on Apr 18 2014 18:23:38
Библиотека кодирования                   : libebml v1.3.0 + libmatroska v1.4.1
Видео
Идентификатор                            : 1
Формат                                   : AVC
Формат/Информация                        : Advanced Video Codec
Профиль формата                          : High@L4.1
Параметр CABAC формата                   : Да
Параметр ReFrames формата                : 4 кадра
Идентификатор кодека                     : V_MPEG4/ISO/AVC
Продолжительность                        : 2 ч. 5 м.
Битрейт                                  : 16,1 Мбит/сек
Ширина                                   : 1920 пикселей
Высота                                   : 1036 пикселей
Соотношение сторон                       : 1,85:1
Режим частоты кадров                     : Постоянный
Частота кадров                           : 23,976 кадра/сек
Цветовое пространство                    : YUV
Субдискретизация насыщенности            : 4:2:0
Битовая глубина                          : 8 бит
Тип развёртки                            : Прогрессивная
Бит/(Пиксели*Кадры)                      : 0.337
Размер потока                            : 14,1 Гбайт (67%)
Заголовок                                : 1080p x264 L4.1 @ 16553 Kbps
Библиотека кодирования                   : x264 core 142 r2409+42 04be48a tMod [8-bit@all X86_64]
Настройки программы                      : cabac=1 / ref=4 / deblock=1:-3:-3 / analyse=0x3:0x133 / me=umh / subme=11 / psy=1 / fade_compensate=0.00 / psy_rd=1.10:0.00 / mixed_ref=1 / me_range=30 / chroma_me=1 / trellis=2 / 8x8dct=1 / cqm=0 / deadzone=21,11 / fast_pskip=0 / chroma_qp_offset=-2 / threads=6 / lookahead_threads=1 / sliced_threads=0 / nr=0 / decimate=0 / interlaced=0 / bluray_compat=0 / constrained_intra=0 / fgo=0 / bframes=6 / b_pyramid=2 / b_adapt=2 / b_bias=0 / direct=3 / weightb=1 / open_gop=0 / weightp=2 / keyint=250 / keyint_min=23 / scenecut=40 / intra_refresh=0 / rc_lookahead=60 / rc=crf / mbtree=0 / crf=17.0000 / qcomp=0.70 / qpmin=0:0:0 / qpmax=69:69:69 / qpstep=4 / vbv_maxrate=50000 / vbv_bufsize=62500 / crf_max=0.0 / nal_hrd=none / filler=0 / ip_ratio=1.30 / pb_ratio=1.10 / aq=4:0.90 / aq-sensitivity=10.00 / aq-factor=1.00:1.00:1.00 / aq2=0 / aq3=0 / zones=169035,181029,pbratio=1.3,crf=23
Язык                                     : English
Default                                  : Да
Forced                                   : Нет
Коэффициенты матрицы                     : BT.709
Аудио #1
Идентификатор                            : 2
Формат                                   : DTS
Формат/Информация                        : Digital Theater Systems
Режим                                    : 16
Параметр Endianness формата              : Big
Идентификатор кодека                     : A_DTS
Продолжительность                        : 2 ч. 5 м.
Вид битрейта                             : Постоянный
Битрейт                                  : 1509 Кбит/сек
Каналы                                   : 6 каналов
Расположение каналов                     : Front: L C R, Side: L R, LFE
Частота                                  : 48,0 КГц
Битовая глубина                          : 24 бит
Метод сжатия                             : С потерями
Размер потока                            : 1,33 Гбайт (6%)
Язык                                     : Russian
Default                                  : Да
Forced                                   : Нет
Аудио #2
Идентификатор                            : 3
Формат                                   : DTS
Формат/Информация                        : Digital Theater Systems
Режим                                    : 16
Параметр Endianness формата              : Big
Идентификатор кодека                     : A_DTS
Продолжительность                        : 2 ч. 5 м.
Вид битрейта                             : Постоянный
Битрейт                                  : 1509 Кбит/сек
Каналы                                   : 6 каналов
Расположение каналов                     : Front: L C R, Side: L R, LFE
Частота                                  : 48,0 КГц
Битовая глубина                          : 24 бит
Метод сжатия                             : С потерями
Размер потока                            : 1,33 Гбайт (6%)
Заголовок                                : MVO
Язык                                     : Russian
Default                                  : Нет
Forced                                   : Нет
Аудио #3
Идентификатор                            : 4
Формат                                   : DTS
Формат/Информация                        : Digital Theater Systems
Режим                                    : 16
Параметр Endianness формата              : Big
Идентификатор кодека                     : A_DTS
Продолжительность                        : 2 ч. 5 м.
Вид битрейта                             : Постоянный
Битрейт                                  : 1510 Кбит/сек
Каналы                                   : 6 каналов
Расположение каналов                     : Front: L C R, Side: L R, LFE
Частота                                  : 48,0 КГц
Битовая глубина                          : 24 бит
Метод сжатия                             : С потерями
Размер потока                            : 1,33 Гбайт (6%)
Заголовок                                : VO А.Матвеев
Язык                                     : Russian
Default                                  : Нет
Forced                                   : Нет
Аудио #4
Идентификатор                            : 5
Формат                                   : DTS
Формат/Информация                        : Digital Theater Systems
Режим                                    : 16
Параметр Endianness формата              : Big
Идентификатор кодека                     : A_DTS
Продолжительность                        : 2 ч. 5 м.
Вид битрейта                             : Постоянный
Битрейт                                  : 1509 Кбит/сек
Каналы                                   : 6 каналов
Расположение каналов                     : Front: L C R, Side: L R, LFE
Частота                                  : 48,0 КГц
Битовая глубина                          : 24 бит
Метод сжатия                             : С потерями
Размер потока                            : 1,33 Гбайт (6%)
Язык                                     : Ukrainian
Default                                  : Нет
Forced                                   : Нет
Аудио #5
Идентификатор                            : 6
Формат                                   : DTS
Формат/Информация                        : Digital Theater Systems
Режим                                    : 16
Параметр Endianness формата              : Big
Идентификатор кодека                     : A_DTS
Продолжительность                        : 2 ч. 5 м.
Вид битрейта                             : Постоянный
Битрейт                                  : 1509 Кбит/сек
Каналы                                   : 6 каналов
Расположение каналов                     : Front: L C R, Side: L R, LFE
Частота                                  : 48,0 КГц
Битовая глубина                          : 24 бит
Метод сжатия                             : С потерями
Размер потока                            : 1,33 Гбайт (6%)
Язык                                     : English
Default                                  : Нет
Forced                                   : Нет
Текст #1
Идентификатор                            : 7
Формат                                   : UTF-8
Идентификатор кодека                     : S_TEXT/UTF8
Идентификатор кодека/Информация          : UTF-8 Plain Text
Язык                                     : Russian
Default                                  : Нет
Forced                                   : Нет
Текст #2
Идентификатор                            : 8
Формат                                   : UTF-8
Идентификатор кодека                     : S_TEXT/UTF8
Идентификатор кодека/Информация          : UTF-8 Plain Text
Язык                                     : English
Default                                  : Нет
Forced                                   : Нет
Текст #3
Идентификатор                            : 9
Формат                                   : UTF-8
Идентификатор кодека                     : S_TEXT/UTF8
Идентификатор кодека/Информация          : UTF-8 Plain Text
Заголовок                                : SDH
Язык                                     : English
Default                                  : Нет
Forced                                   : Нет
Текст #4
Идентификатор                            : 10
Формат                                   : UTF-8
Идентификатор кодека                     : S_TEXT/UTF8
Идентификатор кодека/Информация          : UTF-8 Plain Text
Заголовок                                : forced
Язык                                     : Russian
Default                                  : Да
Forced                                   : Да
Текст #5
Идентификатор                            : 11
Формат                                   : UTF-8
Идентификатор кодека                     : S_TEXT/UTF8
Идентификатор кодека/Информация          : UTF-8 Plain Text
Заголовок                                : full (Arona)
Язык                                     : Russian
Default                                  : Нет
Forced                                   : Нет
Меню
00:00:00.000                             : en:00:00:00.000
00:10:02.560                             : en:00:10:02.560
00:19:10.107                             : en:00:19:10.107
00:32:12.681                             : en:00:32:12.681
00:40:40.146                             : en:00:40:40.146
00:52:38.197                             : en:00:52:38.197
01:03:11.454                             : en:01:03:11.454
01:12:45.027                             : en:01:12:45.027
01:20:36.874                             : en:01:20:36.874
01:30:02.105                             : en:01:30:02.105
01:41:40.011                             : en:01:41:40.011
01:50:33.293                             : en:01:50:33.293
01:57:32.671                             : en:01:57:32.671
Скриншоты
Скачать

Скачать торрент!

Как скачивать? · Что такое торрент? · Рейтинг и ограничения

Сайт не распространяет и не хранит электронные версии произведений, а лишь предоставляет доступ к создаваемому пользователями каталогу ссылок на торрент-файлы, которые содержат только списки хеш-сумм

[Профиль] [ЛС]
Показать сообщения:    
Ответить на тему

Текущее время: Сегодня 06:22

Часовой пояс: GMT + 4



Вы не можете начинать темы
Вы не можете отвечать на сообщения
Вы не можете редактировать свои сообщения
Вы не можете удалять свои сообщения
Вы не можете голосовать в опросах
Вы не можете прикреплять файлы к сообщениям
Вы не можете скачивать файлы