Кровавое лето Сэма / Summer of Sam (Спайк Ли / Spike Lee) [1999, США, Драма, мелодрама, триллер, BDRip 1080p] DVO (R5) + Sub Eng + Original Eng

Ответить на тему
 
Автор Сообщение

user ®

Стаж: 7 лет 7 месяцев

Сообщений: 20008

Пост Пост: #1 от 30-Сен-2014 23:50

[Цитировать]

Кровавое лето Сэма / Summer of Sam
Страна: США
Студия: Touchstone Pictures
Жанр: Драма, мелодрама, триллер
Год выпуска: 1999
Продолжительность: 02:21:52
Перевод: Профессиональный (двухголосый закадровый)
Cубтитры: английские
Оригинальная аудиодорожка: английский
Режиссер: Спайк Ли / Spike Lee
В ролях: Джон Легуизамо, Мира Сорвино, Адриэн Броуди, Дженнифер Эспозито и др.
Описание: В истории Нью-Йорка лето 1977 года вошло как одно из самых жарких в изнуряющих. Казалось, будто 40-градусная жара готова расплавить асфальт и свести окончательно жителей Большого Яблока с ума. Но не жара стала главным врагом жителей громадного мегаполиса, а Дэвид Берковиц, серийный убийца, прозванный «Сыном Сэма». Казалось, что город медленно, но верно погружается в пучину безумия и массовой истерии, когда каждого человека, знакомого и, особенно, незнакомого можно было счесть убийцей. То лето Нью-Йорк запомнил навсегда.
Rating: IMDB - 6.6, Кинопоиск - 6.902
Тип релиза: BDRip 1080p Сэмпл
Контейнер: MKV
Видео: MPEG4/AVC, 1920x1040, 1.85:1, 10625 Kbps, 23.976 fps
Аудио: Русский, AC3, 5.1, 48 KHz/16 bit, 448 Kbps
Аудио 2: Английский, DTS, 5.1, 48 KHz/24 bit, 1509 Kbps
Формат субтитров: softsub (SRT)
MediaInfo
General
Unique ID : 245440974639289326341685876059682518011 (0xB8A63656EA9B79C98725B4F5424633FB)
Complete name : F:\My Downloads\Summer.of.Sam.1999.1080p.BDrip.X264.mkv
Format : Matroska
Format version : Version 2
File size : 12.5 GiB
Duration : 2h 21mn
Overall bit rate : 12.6 Mbps
Encoded date : UTC 2014-09-27 19:10:31
Writing application : mkvmerge v3.4.0 ('Rapunzel') сборка от May 15 2010 09:38:20
Writing library : libebml v0.8.0 + libmatroska v0.9.0
Video
ID : 1
Format : AVC
Format/Info : Advanced Video Codec
Format profile : High@L4.1
Format settings, CABAC : Yes
Format settings, ReFrames : 4 frames
Codec ID : V_MPEG4/ISO/AVC
Duration : 2h 21mn
Bit rate : 10.6 Mbps
Width : 1 920 pixels
Height : 1 040 pixels
Display aspect ratio : 1.85:1
Frame rate mode : Constant
Frame rate : 23.976 fps
Color space : YUV
Chroma subsampling : 4:2:0
Bit depth : 8 bits
Scan type : Progressive
Bits/(Pixel*Frame) : 0.222
Stream size : 10.3 GiB (82%)
Title : MPEG4/AVC
Writing library : x264 core 142 r2431 ac76440
Encoding settings : cabac=1 / ref=4 / deblock=1:-3:-3 / analyse=0x3:0x113 / me=umh / subme=8 / psy=1 / psy_rd=1.00:0.00 / mixed_ref=1 / me_range=16 / chroma_me=1 / trellis=1 / 8x8dct=1 / cqm=0 / deadzone=21,11 / fast_pskip=1 / chroma_qp_offset=-2 / threads=12 / lookahead_threads=2 / sliced_threads=0 / nr=0 / decimate=1 / interlaced=0 / bluray_compat=0 / constrained_intra=0 / bframes=3 / b_pyramid=2 / b_adapt=2 / b_bias=0 / direct=3 / weightb=1 / open_gop=0 / weightp=2 / keyint=240 / keyint_min=24 / scenecut=40 / intra_refresh=0 / rc_lookahead=50 / rc=2pass / mbtree=1 / bitrate=10625 / ratetol=1.0 / qcomp=0.60 / qpmin=0 / qpmax=69 / qpstep=4 / cplxblur=20.0 / qblur=0.5 / ip_ratio=1.40 / aq=1:1.00
Language : English
Default : No
Forced : No
Audio #1
ID : 2
Format : AC-3
Format/Info : Audio Coding 3
Mode extension : CM (complete main)
Format settings, Endianness : Big
Codec ID : A_AC3
Duration : 2h 21mn
Bit rate mode : Constant
Bit rate : 448 Kbps
Channel count : 6 channels
Channel positions : Front: L C R, Side: L R, LFE
Sampling rate : 48.0 KHz
Bit depth : 16 bits
Compression mode : Lossy
Stream size : 455 MiB (4%)
Title : AC3_5.1
Language : Russian
Default : Yes
Forced : No
Audio #2
ID : 3
Format : DTS
Format/Info : Digital Theater Systems
Mode : 16
Format settings, Endianness : Big
Codec ID : A_DTS
Duration : 2h 21mn
Bit rate mode : Constant
Bit rate : 1 509 Kbps
Channel count : 6 channels
Channel positions : Front: L C R, Side: L R, LFE
Sampling rate : 48.0 KHz
Bit depth : 24 bits
Compression mode : Lossy
Delay relative to video : 11ms
Stream size : 1.50 GiB (12%)
Title : DTS
Language : English
Default : No
Forced : No
Text #1
ID : 4
Format : UTF-8
Codec ID : S_TEXT/UTF8
Codec ID/Info : UTF-8 Plain Text
Title : SDH
Language : English
Default : No
Forced : No
Text #2
ID : 5
Format : UTF-8
Codec ID : S_TEXT/UTF8
Codec ID/Info : UTF-8 Plain Text
Language : English
Default : No
Forced : No
Menu
00:00:00.000 : en:00:00:00.000
00:12:24.452 : en:00:12:24.452
00:23:43.589 : en:00:23:43.589
00:35:44.684 : en:00:35:44.684
00:48:11.472 : en:00:48:11.472
00:59:00.579 : en:00:59:00.579
01:08:07.500 : en:01:08:07.500
01:20:16.812 : en:01:20:16.812
01:30:48.401 : en:01:30:48.401
01:42:16.630 : en:01:42:16.630
01:58:18.967 : en:01:58:18.967
02:07:51.706 : en:02:07:51.706
Скриншоты
Скачать

Скачать торрент!

Как скачивать? · Что такое торрент? · Рейтинг и ограничения

Сайт не распространяет и не хранит электронные версии произведений, а лишь предоставляет доступ к создаваемому пользователями каталогу ссылок на торрент-файлы, которые содержат только списки хеш-сумм

[Профиль] [ЛС]
Показать сообщения:    
Ответить на тему

Текущее время: Сегодня 20:35

Часовой пояс: GMT + 4



Вы не можете начинать темы
Вы не можете отвечать на сообщения
Вы не можете редактировать свои сообщения
Вы не можете удалять свои сообщения
Вы не можете голосовать в опросах
Вы не можете прикреплять файлы к сообщениям
Вы не можете скачивать файлы