Легкие деньги / Хорошие люди / Good People (Генрик Рубен Генц / Henrik Ruben Genz) [2014, США, боевик, триллер, криминал, WEB-DL 720p] DVO (Paradox) + Original Eng + Sub Eng

Ответить на тему
 
Автор Сообщение

user ®

Стаж: 7 лет 7 месяцев

Сообщений: 20008

Пост Пост: #1 от 30-Сен-2014 23:50

[Цитировать]

Хорошие люди / Good People Страна: США
Жанр: боевик, триллер, криминал
Год выпуска: 2014
Продолжительность: 01:30:13
Перевод: Любительский (двухголосый закадровый) Студия "Paradox"
Cубтитры: английские
Оригинальная аудиодорожка: английский
Режиссер: Генрик Рубен Генц / Henrik Ruben Genz
В ролях: Джеймс Франко, Кейт Хадсон, Омар Си, Том Уилкинсон, Сэм Спруэлл, Анна Фрил, Диармэйд Мурта, Диана Хардкэсл, Ласко Аткинс, Майкл Джибсон
Описание: Главный герой истории — Том Рид, попавший вместе с супругой Анной в долговую яму. Причина финансовых неприятностей — дорогостоящее лечение от бесплодия. А тут внезапно умирает владелец их съёмной квартиры, живший этажом ниже, и перед Томом и Анной встаёт дилемма: стоит ли забрать увесистую пачку банкнот общей суммой 370 тысяч долларов?
http://multi-up.com/1002411
Качество видео: WEB-DL 720p
Формат видео: mkv
Видео: AVC, 3926 kb/s, 1280x720 23.976 fps
Аудио 1: Russian: AC3, 192 kb/s, 2 ch, 48,0 КГц
Аудио 2: English: AC3, 384 kb/s, 6 ch, 48,0 КГц
MediaInfo
Формат : Matroska
Версия формата : Version 2
Размер файла : 2,89 Гбайт
Продолжительность : 1 ч. 30 м.
Общий поток : 4594 Кбит/сек
Дата кодирования : UTC 2014-09-28 21:25:04
Программа кодирования : mkvmerge v7.2.0 ('On Every Street') 64bit built on Sep 13 2014 15:52:10
Библиотека кодирования : libebml v1.3.0 + libmatroska v1.4.1
DURATION : 01:30:13.312000000
NUMBER_OF_FRAMES : 169166
NUMBER_OF_BYTES : 129919488
_STATISTICS_WRITING_APP : mkvmerge v7.2.0 ('On Every Street') 64bit built on Sep 13 2014 15:52:10
_STATISTICS_WRITING_DATE_UTC : 2014-09-28 21:25:04
_STATISTICS_TAGS : BPS DURATION NUMBER_OF_FRAMES NUMBER_OF_BYTES
Видео
Идентификатор : 1
Формат : AVC
Формат/Информация : Advanced Video Codec
Профиль формата : High@L3.1
Параметр CABAC формата : Нет
Параметр ReFrames формата : 2 кадра
Идентификатор кодека : V_MPEG4/ISO/AVC
Продолжительность : 1 ч. 30 м.
Битрейт : 3926 Кбит/сек
Ширина : 1280 пикселей
Высота : 720 пикселей
Соотношение сторон : 16:9
Режим частоты кадров : Постоянный
Частота кадров : 23,976 кадра/сек
Цветовое пространство : YUV
Субдискретизация насыщенности : 4:2:0
Битовая глубина : 8 бит
Тип развёртки : Прогрессивная
Бит/(Пиксели*Кадры) : 0.178
Размер потока : 2,47 Гбайт (85%)
Язык : English
Default : Да
Forced : Нет
Основные цвета : BT.709
Характеристики трансфера : BT.709
Коэффициенты матрицы : BT.709
Аудио #1
Идентификатор : 2
Формат : AC-3
Формат/Информация : Audio Coding 3
Расширение режима : CM (complete main)
Параметр Endianness формата : Big
Идентификатор кодека : A_AC3
Продолжительность : 1 ч. 30 м.
Вид битрейта : Постоянный
Битрейт : 192 Кбит/сек
Каналы : 2 канала
Расположение каналов : Front: L R
Частота : 48,0 КГц
Битовая глубина : 16 бит
Метод сжатия : С потерями
Размер потока : 124 Мбайт (4%)
Язык : Russian
Default : Нет
Forced : Нет
Аудио #2
Идентификатор : 3
Формат : AC-3
Формат/Информация : Audio Coding 3
Расширение режима : CM (complete main)
Параметр Endianness формата : Big
Идентификатор кодека : A_AC3
Продолжительность : 1 ч. 30 м.
Вид битрейта : Постоянный
Битрейт : 384 Кбит/сек
Каналы : 6 каналов
Расположение каналов : Front: L C R, Side: L R, LFE
Частота : 48,0 КГц
Битовая глубина : 16 бит
Метод сжатия : С потерями
Размер потока : 248 Мбайт (8%)
Язык : English
Default : Нет
Forced : Нет
Текст
Идентификатор : 4
Формат : UTF-8
Идентификатор кодека : S_TEXT/UTF8
Идентификатор кодека/Информация : UTF-8 Plain Text
Default : Да
Forced : Нет
Меню
00:00:00.000 : en:Chapter 1
00:09:34.000 : en:Chapter 2
00:20:33.000 : en:Chapter 3
00:29:12.000 : en:Chapter 4
00:38:51.000 : en:Chapter 5
00:49:09.000 : en:Chapter 6
00:59:47.000 : en:Chapter 7
01:07:27.000 : en:Chapter 8
01:22:41.000 : en:Chapter 9
Скриншоты
Скачать

Скачать торрент!

Как скачивать? · Что такое торрент? · Рейтинг и ограничения

Сайт не распространяет и не хранит электронные версии произведений, а лишь предоставляет доступ к создаваемому пользователями каталогу ссылок на торрент-файлы, которые содержат только списки хеш-сумм

[Профиль] [ЛС]
Показать сообщения:    
Ответить на тему

Текущее время: Сегодня 12:52

Часовой пояс: GMT + 4



Вы не можете начинать темы
Вы не можете отвечать на сообщения
Вы не можете редактировать свои сообщения
Вы не можете удалять свои сообщения
Вы не можете голосовать в опросах
Вы не можете прикреплять файлы к сообщениям
Вы не можете скачивать файлы