Чамскраббер / The Chumscrubber (Арье Позин / Arie Posin) [2005, США, Германия, драма, комедия, HDTV 1080i] DVO

Ответить на тему
 
Автор Сообщение

user ®

Стаж: 7 лет 7 месяцев

Сообщений: 20008

Пост Пост: #1 от 30-Сен-2014 23:50

[Цитировать]

Чамскраббер / The Chumscrubber«Meet Generation Rx» Страна: США, Германия
Жанр: драма, комедия
Год выпуска: 2005
Продолжительность: 01:42:55
Перевод: Профессиональный (двухголосый закадровый)
Cубтитры: нет
Режиссер: Арье Позин / Arie Posin
В ролях: Джейми Белл, Камилла Белль, Джастин Чэтвин, Гленн Клоуз, Томас Кертис, Рори Калкин, Кэти Коуплэнд, Тим ДиКей, Дэвид Эллисон, Уильям Фихтнер
Описание: Хиллсайд — красивый пригородный городок где-то в США — для кого-то может показаться открыткой с изображением ворот в «американскую мечту», но подросток Дин знает об этом несколько больше. Когда лучший друг Дина Стиффла, главный наркодилер Хиллсайда Трой, вешается у себя в спальне, тщательно поддерживаемое психотерапевтическое равновесие в городке дало сильный крен.
Дин решил не сообщать о случившемся взрослым, но вскоре обо всём узнали все, в том числе одноклассники Дина. Трое из них, Билли, Кристал и Ли, составили план похищения младшего брата Дина, Чарли, чтобы заставить Дина разыскать тайник Троя с наркотиками…

Сэмпл: http://sendfile.su/1028914
Тип релиза: HDTV 1080i
Контейнер: TS
Видео: AVC/H.264, PAL, 1920x1080 (16:9), 8602 Кбит/сек, 25.000 fps
Аудио: русский, MP-2, 48000 Hz, 192 Кбит/сек, 2 ch
MediaInfo
Общее
Идентификатор : 1 (0x1)
Полное имя : C:\Documents and Settings\Администратор\Мои документы\Чамскраббер.ts
Формат : MPEG-TS
Размер файла : 6,65 Гбайт
Продолжительность : 1 ч. 42 м.
Режим общего битрейта : Переменный
Общий поток : 9253 Кбит/сек
Максимальный общий битрейт : 35,5 Мбит/сек
Видео
Идентификатор : 4113 (0x1011)
Идентификатор меню : 1 (0x1)
Формат : AVC
Формат/Информация : Advanced Video Codec
Профиль формата : Main@L4.0
Параметр CABAC формата : Да
Параметр ReFrames формата : 3 кадра
Идентификатор кодека : 27
Продолжительность : 1 ч. 42 м.
Вид битрейта : Переменный
Битрейт : 8602 Кбит/сек
Максимальный битрейт : 40,0 Мбит/сек
Ширина : 1920 пикселей
Высота : 1080 пикселей
Соотношение сторон : 16:9
Частота кадров : 25,000 кадров/сек
Стандарт вещания : Component
Цветовое пространство : YUV
Субдискретизация насыщенности : 4:2:0
Битовая глубина : 8 бит
Тип развёртки : Чересстрочная
Порядок развёртки : Верхнее поле первое
Бит/(Пиксели*Кадры) : 0.166
Размер потока : 6,18 Гбайт (93%)
Основные цвета : BT.709
Характеристики трансфера : BT.709
Коэффициенты матрицы : BT.709
Аудио
Идентификатор : 4352 (0x1100)
Идентификатор меню : 1 (0x1)
Формат : MPEG Audio
Версия формата : Version 1
Профиль формата : Layer 2
Идентификатор кодека : 4
Продолжительность : 1 ч. 42 м.
Вид битрейта : Постоянный
Битрейт : 192 Кбит/сек
Каналы : 2 канала
Частота : 48,0 КГц
Метод сжатия : С потерями
Размер потока : 141 Мбайт (2%)
Язык : Russian
Скриншот c названием фильма Скриншоты
Скачать

Скачать торрент!

Как скачивать? · Что такое торрент? · Рейтинг и ограничения

Сайт не распространяет и не хранит электронные версии произведений, а лишь предоставляет доступ к создаваемому пользователями каталогу ссылок на торрент-файлы, которые содержат только списки хеш-сумм

[Профиль] [ЛС]
Показать сообщения:    
Ответить на тему

Текущее время: Сегодня 20:24

Часовой пояс: GMT + 4



Вы не можете начинать темы
Вы не можете отвечать на сообщения
Вы не можете редактировать свои сообщения
Вы не можете удалять свои сообщения
Вы не можете голосовать в опросах
Вы не можете прикреплять файлы к сообщениям
Вы не можете скачивать файлы