3 дня на убийство / 3 Days to Kill (МакДжи / McG) [2014, Франция, США, боевик, криминал, триллер, драма, комедия, BDRip] [Extended Cut] Dub BD + Sub rus forced

Ответить на тему
 
Автор Сообщение

user ®

Стаж: 7 лет 7 месяцев

Сообщений: 20008

Пост Пост: #1 от 30-Сен-2014 17:30

[Цитировать]

3 дня на убийство / 3 Days to Kill
Расширенная версия / Extended Cut
-Страна: Франция, США / 3DTK, EuropaCorp, Feelgood Entertainment, Relativity Media..
Жанр: боевик, криминал, триллер, драма, комедия
Год выпуска: 2014
Продолжительность: 02:02:18
Перевод: Профессиональный (дублированный) лицензия BD
Cубтитры: русские (forced) на непереведённые расширенные эпизоды (внешние)
Режиссёр: МакДжи / McG
В ролях: Кевин Костнер, Эмбер Хёрд, Хейли Стайнфелд, Конни Нильсен, Томас Лемаркус, Рихард Заммель, Марк Андреони, Бруно Риччи, Йонас Блоке, Эрик Эбони.
Описание: В секретной лаборатории ученые разработали препарат, который позволяет человеку справиться с любой неизлечимой болезнью. Руководство спецслужб предлагает принять это лекарство экс-агенту спецслужб Итану Раннеру, которому врачи объявили смертельный диагноз. Но он должен выполнить еще одно задание, которое, впрочем, может стоить ему жизни. Теперь вокруг Раннера начинают происходить странные вещи. Что это - галлюцинации, побочный эффект от таблеток или мир действительно полон ужаса и кошмара?-Рейтинг
imdb.com: 6.20 (41 631)
kinopoisk.ru: 6.512 (15 248)
MPAA: - детям до 13 лет просмотр не желателен-Сэмпл: http://multi-up.com/1002704-Качество видео: BDRip [3.Days.to.Kill.2014.Extended.Cut.BDRemux.1080p.NovaLan.mkv]
Формат видео: AVI
Видео: XviD build 65, 720x304 (2.37:1), 23.976 fps, ~1320 kbps avg, 0.251 bit/pixel
Аудио: 48 kHz, AC3 Dolby Digital, 3/2 (L,C,R,l,r) + LFE ch, ~384 kbps avg (Dub)
Формат субтитров: softsub (SRT)
-MediaInfo
Общее
Полное имя : D:\3.Days.to.Kill.2014.Extended.Cut.Dub.BDRip.1,46Gb.XviD.AC3\3.Days.to.Kill.2014.Extended.Cut.Dub.BDRip.1,46Gb.XviD.AC3.avi
Формат : AVI
Формат/Информация : Audio Video Interleave
Размер файла : 1,46 Гбайт
Продолжительность : 2 ч. 2 м.
Общий поток : 1713 Кбит/сек
Название фильма : 3 Days to Kill 2014. [Extended Cut]
Режиссёр : McG
Дата записи : 27.09.2014
Программа кодирования : VirtualDubModRus 1.5.10.2 (build 2542/release)
Библиотека кодирования : VirtualDubMod build 2542/release
Правообладатель : ***
Примечание : MooN_WalkeR
Видео
Идентификатор : 0
Формат : MPEG-4 Visual
Профиль формата : Advanced Simple@L5
Параметр BVOP формата : 1
Параметр QPel формата : Нет
Параметр GMC формата : Без точки перехода
Параметр матрицы формата : Выборочная
Идентификатор кодека : XVID
Идентификатор кодека/Подсказка : XviD
Продолжительность : 2 ч. 2 м.
Битрейт : 1320 Кбит/сек
Ширина : 720 пикселей
Высота : 304 пикселя
Соотношение сторон : 2,35:1
Частота кадров : 23,976 кадра/сек
Цветовое пространство : YUV
Субдискретизация насыщенности : 4:2:0
Битовая глубина : 8 бит
Тип развёртки : Прогрессивная
Метод сжатия : С потерями
Бит/(Пиксели*Кадры) : 0.251
Размер потока : 1,13 Гбайт (77%)
Библиотека кодирования : XviD 65
Аудио
Идентификатор : 1
Формат : AC-3
Формат/Информация : Audio Coding 3
Расширение режима : CM (complete main)
Параметр Endianness формата : Big
Идентификатор кодека : 2000
Продолжительность : 2 ч. 2 м.
Вид битрейта : Постоянный
Битрейт : 384 Кбит/сек
Каналы : 6 каналов
Расположение каналов : Front: L C R, Side: L R, LFE
Частота : 48,0 КГц
Битовая глубина : 16 бит
Метод сжатия : С потерями
Размер потока : 336 Мбайт (22%)
Выравнивание : Разделение по промежуткам
Продолжительность промежутка : 42 мс. (1,00 видеокадр)
Время предзагрузки промежутка : 500 мс.
Заголовок : Dub
Скриншоты
Скачать

Скачать торрент!

Как скачивать? · Что такое торрент? · Рейтинг и ограничения

Сайт не распространяет и не хранит электронные версии произведений, а лишь предоставляет доступ к создаваемому пользователями каталогу ссылок на торрент-файлы, которые содержат только списки хеш-сумм

[Профиль] [ЛС]
Показать сообщения:    
Ответить на тему

Текущее время: Сегодня 21:40

Часовой пояс: GMT + 4



Вы не можете начинать темы
Вы не можете отвечать на сообщения
Вы не можете редактировать свои сообщения
Вы не можете удалять свои сообщения
Вы не можете голосовать в опросах
Вы не можете прикреплять файлы к сообщениям
Вы не можете скачивать файлы