Старшая жена (Иван Соловов) [2008, драма, HDTVRip]

Ответить на тему
 
Автор Сообщение

user ®

Стаж: 7 лет 7 месяцев

Сообщений: 20008

Пост Пост: #1 от 30-Сен-2014 14:20

[Цитировать]

Старшая жена
Жанр: драма
Год выпуска: 2008
Продолжительность: 01:30:09
Режиссёр: Иван Соловов
В ролях: Ирина Розанова, Андрей Панин, Александр Домогаров, Лидия Вележева, Бениха Эгути, Иван Шабалтас, Александр Баширов, Зоя Хоихалджинова, Марат Башаров, Михаил Богдасаров, Ольга Надбитова
Описание: В калмыцком ауле живет простая семья - Баира и ее муж Съезд. Они любят друг друга, вместе стригут и продают баранов, ведут хозяйство, никогда не расстаются и другой жизни не знают. И вдруг Съезд приводит в дом вторую жену - обещал соседке перед смертью жениться на ее внучке. Внучка - молодая красавица, да еще и беременная. Баира с отчаянием смотрит на себя в зеркало - ей 40 лет... Почувствовав себя лишней, Баира покидает родной аул и идет, куда глаза глядят - в город. А там совсем другая жизнь, по другим законам. Город полон сюрпризов, разочарований и жестокости. Баира будет и в эйфории от счастья и на волоске от смерти. Баира даже почувствует себя Золушкой - ее полюбит сказочный принц. Но... старшая жена пришла в город не просто так. Ее цель - найти средство, чтобы жестоко отомстить мужу... Что это за средство и к чему оно приведет - расскажет фильм.

Качество видео: HDTVRip [Источник: HDTV 1080i, спасибо KLOD468]
Формат видео: AVI
Видео: MPEG4, XviD, 720x304 (2.35:1), 25.000 fps, 957 Kbps (0.175 bit/pixel)
Аудио: MP3, 44.1 KHz, 2 ch, 128 Kbps, CBR
MediaInfo
GeneralComplete name : D:\torrent\Files\Starshaya.zhena.2008.HDTVRip.aleksd72.aviFormat : AVIFormat/Info : Audio Video InterleaveFile size : 706 MiBDuration : 1h 30mnOverall bit rate : 1 095 KbpsWriting application : VirtualDubModRus 1.5.10.2 (build 2542/release)Writing library : VirtualDubMod build 2542/release
VideoID : 0Format : MPEG-4 VisualFormat profile : Advanced Simple@L5Format settings, BVOP : 1Format settings, QPel : NoFormat settings, GMC : No warppointsFormat settings, Matrix : CustomCodec ID : XVIDCodec ID/Hint : XviDDuration : 1h 30mnBit rate : 957 KbpsWidth : 720 pixelsHeight : 304 pixelsDisplay aspect ratio : 2.35:1Frame rate : 25.000 fpsColor space : YUVChroma subsampling : 4:2:0Bit depth : 8 bitsScan type : ProgressiveCompression mode : LossyBits/(Pixel*Frame) : 0.175Stream size : 617 MiB (87%)Writing library : XviD 65
AudioID : 1Format : MPEG AudioFormat version : Version 1Format profile : Layer 3Codec ID : 55Codec ID/Hint : MP3Duration : 1h 30mnBit rate mode : ConstantBit rate : 128 KbpsChannel(s) : 2 channelsSampling rate : 44.1 KHzCompression mode : LossyStream size : 82.5 MiB (12%)Alignment : Split accross interleavesInterleave, duration : 40 ms (1.00 video frame)Interleave, preload duration : 500 ms
Скриншоты
Скачать

Скачать торрент!

Как скачивать? · Что такое торрент? · Рейтинг и ограничения

Сайт не распространяет и не хранит электронные версии произведений, а лишь предоставляет доступ к создаваемому пользователями каталогу ссылок на торрент-файлы, которые содержат только списки хеш-сумм

[Профиль] [ЛС]
Показать сообщения:    
Ответить на тему

Текущее время: Сегодня 20:05

Часовой пояс: GMT + 4



Вы не можете начинать темы
Вы не можете отвечать на сообщения
Вы не можете редактировать свои сообщения
Вы не можете удалять свои сообщения
Вы не можете голосовать в опросах
Вы не можете прикреплять файлы к сообщениям
Вы не можете скачивать файлы