Подозрительные лица / The Usual Suspects (Брайан Сингер / Bryan Singer) [1995, США, Германия, триллер, драма, криминал, детектив, BDRip 1080p] 3x MVO (Киномания, R5, РТР) + 3x AVO + VO + 2x Ukr + Original Eng + sub (rus, eng)

Ответить на тему
 
Автор Сообщение

user ®

Стаж: 7 лет 7 месяцев

Сообщений: 20008

Пост Пост: #1 от 30-Сен-2014 01:30

[Цитировать]

Подозрительные лица / The Usual Suspects- Год выпуска: 1995
Страна: США, Германия
Жанр: триллер, драма, криминал, детектив
Продолжительность: 01:46:05
Перевод: Профессиональный (многоголосый, закадровый) Киномания
+ Профессиональный (многоголосый, закадровый) R5
+ Профессиональный (многоголосый, закадровый) РТР
+ Авторский одноголосый закадровый П.Карцев
+ Авторский одноголосый закадровый Ю.Живов
+ Авторский одноголосый закадровый Леша Прапорщик
+ Одноголосый закадровый В.Назаров
Оригинальная звуковая дорожка: English
Субтитры: Russian, English-Режиссер: Брайан Сингер / Bryan Singer
В ролях: Стивен Болдуин, Гэбриел Бирн, Бенисио Дель Торо, Кевин Поллак, Кевин Спейси, Чезз Палминтери, Пит Постлтуэйт, Джанкарло Эспозито, Сьюзи Амис, Дэн Хедайя, Пол Бартел, Carl Bressler, Филлип Саймон, Джек Ширер, Christine Estabrook, Кларк Грегг, Морган Хантер, Кен Дэйли, Michelle Clunie, Луис Ломбарди, Фрэнк Медрано
О фильме: Обычно, если есть преступление, есть мотив. Обычно, если проводится опознание, по крайней мере есть один подозреваемый. Но это не было обычным преступлением… Пятеро преступников столкнулись в одном необычном месте и решили прокрутить одно дельце. Но кто-то более сильный и могущественный, кто-то, чье имя пугает всех преступников мира, хочет, чтобы они поработали на него…
Это не было обычным преступлением, и они — не просто подозрительные лица… Великолепная режиссура и актерская игра, прекрасный сценарий и две премии «Оскар» подтверждают мнение критиков, что «Подозрительные лица» — один из лучших триллеров всех времен и народов.
CRiSC!
Релиз:
Формат: MKV
Видео: 1920x816 at 23.976 fps, AVC, ~16000 kbps avg
Аудио #01: Russian: 48 kHz, AC3, 3/2 (L,C,R,l,r) + LFE ch, ~448.00 kbps avg |Многоголосый закадровый, Киномания|
Аудио #02: Russian: 48 kHz, AC3, 3/2 (L,C,R,l,r) + LFE ch, ~448.00 kbps avg |Многоголосый закадровый, R5|
Аудио #03: Russian: 48 kHz, AC3, 2/0 (L,R) ch, ~192.00 kbps avg |Многоголосый закадровый, PTP|
Аудио #04: Russian: 48 kHz, AC3, 3/2 (L,C,R,l,r) + LFE ch, ~448.00 kbps avg |Одноголосый закадровый, П.Карцев|
Аудио #05: Russian: 48 kHz, AC3, 2/0 (L,R) ch, ~192.00 kbps avg |Одноголосый закадровый, Ю.Живов|
Аудио #06: Russian: 48 kHz, AC3, 2/0 (L,R) ch, ~192.00 kbps avg |Одноголосый закадровый, Леша Прапорщик|
Аудио #07: Russian: 48 kHz, AC3, 2/0 (L,R) ch, ~192.00 kbps avg |Одноголосый закадровый, В.Назаров
Аудио #08: Ukrainian: 48 kHz, AC3, 2/0 (L,R) ch, ~192.00 kbps avg |Двухголосый закадровый, 1+1|
Аудио #09: Ukrainian: 48 kHz, AC3, 2/0 (L,R) ch, ~192.00 kbps avg |Многоголосый закадровый, INTEP|
Аудио #10: English: 48 kHz/24-bit, DTS, ~1509.00 kbps avg
Семпл-Source vs Encode
-
mInfo
Формат : Matroska
Версия формата : Version 2
Размер файла : 14,8 Гбайт
Продолжительность : 1 ч. 46 м.
Общий поток : 20,0 Мбит/сек
Название фильма : The Usual Suspects (1995) - Release for HDCLUB
Дата кодирования : UTC 2014-09-23 20:23:21
Программа кодирования : mkvmerge v5.7.0 ('The Whirlwind') built on Jul 8 2012 20:08:51
Библиотека кодирования : libebml v1.2.3 + libmatroska v1.3.0
Видео
Идентификатор : 1
Формат : AVC
Формат/Информация : Advanced Video Codec
Профиль формата : High@L4.1
Параметр CABAC формата : Да
Параметр ReFrames формата : 5 кадров
Идентификатор кодека : V_MPEG4/ISO/AVC
Продолжительность : 1 ч. 46 м.
Битрейт : 16,0 Мбит/сек
Ширина : 1920 пикселей
Высота : 816 пикселей
Соотношение сторон : 2,35:1
Режим частоты кадров : Постоянный
Частота кадров : 23,976 кадра/сек
Цветовое пространство : YUV
Субдискретизация насыщенности : 4:2:0
Битовая глубина : 8 бит
Тип развёртки : Прогрессивная
Бит/(Пиксели*Кадры) : 0.426
Размер потока : 11,6 Гбайт (78%)
Библиотека кодирования : x264 core 138 r2358kMod 9e941d1
Настройки программы : cabac=1 / ref=5 / deblock=1:-3:-3 / analyse=0x3:0x133 / me=umh / subme=11 / psy=1 / fade_compensate=0.00 / psy_rd=0.90:0.20 / mixed_ref=1 / me_range=64 / chroma_me=1 / trellis=2 / 8x8dct=1 / cqm=0 / deadzone=21,11 / fast_pskip=0 / chroma_qp_offset=-3 / threads=12 / lookahead_threads=2 / sliced_threads=0 / nr=0 / decimate=0 / interlaced=0 / bluray_compat=0 / constrained_intra=0 / bframes=9 / b_pyramid=2 / b_adapt=2 / b_bias=0 / direct=3 / weightb=1 / open_gop=0 / weightp=2 / keyint=250 / keyint_min=23 / scenecut=40 / intra_refresh=0 / rc_lookahead=40 / rc=2pass / mbtree=0 / bitrate=16000 / ratetol=1.0 / qcomp=0.65 / qpmin=0 / qpmax=69 / qpstep=4 / cplxblur=20.0 / qblur=0.5 / vbv_maxrate=50000 / vbv_bufsize=62500 / nal_hrd=none / ip_ratio=1.10 / pb_ratio=1.10 / aq=2:0.55
Язык : English
Default : Да
Forced : Нет
Основные цвета : BT.709
Характеристики трансфера : BT.709
Коэффициенты матрицы : BT.709
Аудио #1
Идентификатор : 2
Формат : AC-3
Формат/Информация : Audio Coding 3
Расширение режима : CM (complete main)
Параметр Endianness формата : Big
Идентификатор кодека : A_AC3
Продолжительность : 1 ч. 46 м.
Вид битрейта : Постоянный
Битрейт : 448 Кбит/сек
Каналы : 6 каналов
Расположение каналов : Front: L C R, Side: L R, LFE
Частота : 48,0 КГц
Битовая глубина : 16 бит
Метод сжатия : С потерями
Размер потока : 340 Мбайт (2%)
Заголовок : |Многоголосый закадровый, Киномания|
Язык : Russian
Default : Да
Forced : Нет
Аудио #2
Идентификатор : 3
Формат : AC-3
Формат/Информация : Audio Coding 3
Расширение режима : CM (complete main)
Параметр Endianness формата : Big
Идентификатор кодека : A_AC3
Продолжительность : 1 ч. 46 м.
Вид битрейта : Постоянный
Битрейт : 448 Кбит/сек
Каналы : 6 каналов
Расположение каналов : Front: L C R, Side: L R, LFE
Частота : 48,0 КГц
Битовая глубина : 16 бит
Метод сжатия : С потерями
Размер потока : 340 Мбайт (2%)
Заголовок : |Многоголосый закадровый, Tycoon|
Язык : Russian
Default : Нет
Forced : Нет
Аудио #3
Идентификатор : 4
Формат : AC-3
Формат/Информация : Audio Coding 3
Расширение режима : CM (complete main)
Параметр Endianness формата : Big
Идентификатор кодека : A_AC3
Продолжительность : 1 ч. 46 м.
Вид битрейта : Постоянный
Битрейт : 192 Кбит/сек
Каналы : 2 канала
Расположение каналов : Front: L R
Частота : 48,0 КГц
Битовая глубина : 16 бит
Метод сжатия : С потерями
Размер потока : 146 Мбайт (1%)
Заголовок : |Многоголосый закадровый, PTP|
Язык : Russian
Default : Нет
Forced : Нет
Аудио #4
Идентификатор : 5
Формат : AC-3
Формат/Информация : Audio Coding 3
Расширение режима : CM (complete main)
Параметр Endianness формата : Big
Идентификатор кодека : A_AC3
Продолжительность : 1 ч. 46 м.
Вид битрейта : Постоянный
Битрейт : 448 Кбит/сек
Каналы : 6 каналов
Расположение каналов : Front: L C R, Side: L R, LFE
Частота : 48,0 КГц
Битовая глубина : 16 бит
Метод сжатия : С потерями
Размер потока : 340 Мбайт (2%)
Заголовок : |Одноголосый закадровый, П.Карцев|
Язык : Russian
Default : Нет
Forced : Нет
Аудио #5
Идентификатор : 6
Формат : AC-3
Формат/Информация : Audio Coding 3
Расширение режима : CM (complete main)
Параметр Endianness формата : Big
Идентификатор кодека : A_AC3
Продолжительность : 1 ч. 46 м.
Вид битрейта : Постоянный
Битрейт : 192 Кбит/сек
Каналы : 2 канала
Расположение каналов : Front: L R
Частота : 48,0 КГц
Битовая глубина : 16 бит
Метод сжатия : С потерями
Размер потока : 146 Мбайт (1%)
Заголовок : |Одноголосый закадровый, Ю.Живов|
Язык : Russian
Default : Нет
Forced : Нет
Аудио #6
Идентификатор : 7
Формат : AC-3
Формат/Информация : Audio Coding 3
Расширение режима : CM (complete main)
Параметр Endianness формата : Big
Идентификатор кодека : A_AC3
Продолжительность : 1 ч. 46 м.
Вид битрейта : Постоянный
Битрейт : 192 Кбит/сек
Каналы : 2 канала
Расположение каналов : Front: L R
Частота : 48,0 КГц
Битовая глубина : 16 бит
Метод сжатия : С потерями
Размер потока : 146 Мбайт (1%)
Заголовок : |Одноголосый закадровый, Леша Прапорщик|
Язык : Russian
Default : Нет
Forced : Нет
Аудио #7
Идентификатор : 8
Формат : AC-3
Формат/Информация : Audio Coding 3
Расширение режима : CM (complete main)
Параметр Endianness формата : Big
Идентификатор кодека : A_AC3
Продолжительность : 1 ч. 46 м.
Вид битрейта : Постоянный
Битрейт : 192 Кбит/сек
Каналы : 2 канала
Расположение каналов : Front: L R
Частота : 48,0 КГц
Битовая глубина : 16 бит
Метод сжатия : С потерями
Размер потока : 146 Мбайт (1%)
Заголовок : |Одноголосый закадровый, В.Назаров|
Язык : Russian
Default : Нет
Forced : Нет
Аудио #8
Идентификатор : 9
Формат : AC-3
Формат/Информация : Audio Coding 3
Расширение режима : CM (complete main)
Параметр Endianness формата : Big
Идентификатор кодека : A_AC3
Продолжительность : 1 ч. 46 м.
Вид битрейта : Постоянный
Битрейт : 192 Кбит/сек
Каналы : 2 канала
Расположение каналов : Front: L R
Частота : 48,0 КГц
Битовая глубина : 16 бит
Метод сжатия : С потерями
Размер потока : 146 Мбайт (1%)
Заголовок : |Двухголосый закадровый, 1+1|
Язык : Ukrainian
Default : Нет
Forced : Нет
Аудио #9
Идентификатор : 10
Формат : AC-3
Формат/Информация : Audio Coding 3
Расширение режима : CM (complete main)
Параметр Endianness формата : Big
Идентификатор кодека : A_AC3
Продолжительность : 1 ч. 46 м.
Вид битрейта : Постоянный
Битрейт : 192 Кбит/сек
Каналы : 2 канала
Расположение каналов : Front: L R
Частота : 48,0 КГц
Битовая глубина : 16 бит
Метод сжатия : С потерями
Размер потока : 146 Мбайт (1%)
Заголовок : |Многоголосый закадровый, INTEP|
Язык : Ukrainian
Default : Нет
Forced : Нет
Аудио #10
Идентификатор : 11
Формат : DTS
Формат/Информация : Digital Theater Systems
Режим : 16
Параметр Endianness формата : Big
Идентификатор кодека : A_DTS
Продолжительность : 1 ч. 46 м.
Вид битрейта : Постоянный
Битрейт : 1509 Кбит/сек
Каналы : 6 каналов
Расположение каналов : Front: L C R, Side: L R, LFE
Частота : 48,0 КГц
Битовая глубина : 24 бит
Метод сжатия : С потерями
Размер потока : 1,12 Гбайт (8%)
Язык : English
Default : Нет
Forced : Нет
Текст #1
Идентификатор : 12
Формат : UTF-8
Идентификатор кодека : S_TEXT/UTF8
Идентификатор кодека/Информация : UTF-8 Plain Text
Язык : Russian
Default : Нет
Forced : Нет
Текст #2
Идентификатор : 13
Формат : UTF-8
Идентификатор кодека : S_TEXT/UTF8
Идентификатор кодека/Информация : UTF-8 Plain Text
Заголовок : SRT
Язык : English
Default : Нет
Forced : Нет
Меню
00:00:00.000 : en:00:00:00.000
00:02:17.012 : en:00:02:17.012
00:05:11.186 : en:00:05:11.186
00:08:01.731 : en:00:08:01.731
00:12:05.058 : en:00:12:05.058
00:16:55.056 : en:00:16:55.056
00:17:59.078 : en:00:17:59.078
00:20:19.510 : en:00:20:19.510
00:21:55.064 : en:00:21:55.064
00:26:02.478 : en:00:26:02.478
00:28:26.413 : en:00:28:26.413
00:31:19.461 : en:00:31:19.461
00:34:46.042 : en:00:34:46.042
00:37:27.245 : en:00:37:27.245
00:39:36.958 : en:00:39:36.958
00:41:25.858 : en:00:41:25.858
00:43:06.209 : en:00:43:06.209
00:46:14.438 : en:00:46:14.438
00:50:38.661 : en:00:50:38.661
00:51:55.321 : en:00:51:55.321
00:57:00.709 : en:00:57:00.709
00:59:12.257 : en:00:59:12.257
01:04:43.213 : en:01:04:43.213
01:07:06.564 : en:01:07:06.564
01:13:07.717 : en:01:13:07.717
01:14:17.036 : en:01:14:17.036
01:22:30.737 : en:01:22:30.737
01:23:36.803 : en:01:23:36.803
01:28:39.940 : en:01:28:39.940
01:32:38.178 : en:01:32:38.178
01:37:54.744 : en:01:37:54.744
01:42:37.151 : en:01:42:37.151
-
Скачать

Скачать торрент!

Как скачивать? · Что такое торрент? · Рейтинг и ограничения

Сайт не распространяет и не хранит электронные версии произведений, а лишь предоставляет доступ к создаваемому пользователями каталогу ссылок на торрент-файлы, которые содержат только списки хеш-сумм

[Профиль] [ЛС]
Показать сообщения:    
Ответить на тему

Текущее время: Сегодня 20:17

Часовой пояс: GMT + 4



Вы не можете начинать темы
Вы не можете отвечать на сообщения
Вы не можете редактировать свои сообщения
Вы не можете удалять свои сообщения
Вы не можете голосовать в опросах
Вы не можете прикреплять файлы к сообщениям
Вы не можете скачивать файлы