Миллион способов потерять голову / Миллион способов умереть на Диком Западе / A Million Ways to Die in the West (Сет МакФарлейн / Seth MacFarlane) [2014, США, комедия, вестерн, BDRip 1080p] [Unrated] MVO (Filiza Studio) + Sub Rus + Original Eng

Ответить на тему
 
Автор Сообщение

user ®

Стаж: 7 лет 7 месяцев

Сообщений: 20008

Пост Пост: #1 от 30-Сен-2014 01:30

[Цитировать]

Миллион способов потерять голову / Миллион способов умереть на Диком Западе / A Million Ways to Die in the West / Unrated
Страна: США
Студия: Bluegrass Films, Fuzzy Door Productions, Media Rights Capital
Жанр: комедия, вестерн
Год выпуска: 2014
Продолжительность: 02:14:44
Перевод: Профессиональный (многоголосый закадровый) Filiza Studio
Cубтитры: русские (вшитые, отключаемые на расширенные места)
Оригинальная аудиодорожка: английский
Режиссер: Сет МакФарлейн / Seth MacFarlane
В ролях: Сет МакФарлейн, Шарлиз Терон, Аманда Сайфред, Лиам Нисон, Джованни Рибизи, Нил Патрик Харрис, Сара Силверман, Кристофер Хэйген, Уэс Стьюди, Мэтт Кларк
Описание: Угораздило же влюбиться не в том месте и не в то время. Здесь хамят в ресторанах, о горячей воде слагают легенды, да и с транспортом полный коллапс. Но у таинственной незнакомки отменная фигура, да и стреляет она без промаха. Кто же по своей воле откажется от такой красотки?
Доп. информация: Озвучивание: Профессиональное (многоголосое) [FiliZa Studio] - Присутствует ненормативная лексика
Синхронизация звука с театральной версии на расширенную и перевод субтитров (на расширенные места) Хихикающий доктор
Субтитры: Русские (на расширенные места) 20 мин
Имеется навигация по главам как на оригинальном Blu-Ray
Сэмпл: http://multi-up.com/1002229
Тип релиза: BDRip 1080p
Контейнер: MKV
Видео: MPEG-4 AVC, 10.1 Мбит/с, 1920x800, 23.976 кадра/сек
Аудио: MP3, 2 ch, 192 Кбит/с - Русский (Filiza Studio)
Аудио 2: DTS, 6 ch, 1509 Кбит/с - Английский (Original)
Формат субтитров: softsub (SRT)
MediaInfo
General
Unique ID : 183408847053047430153466167323418392676 (0x89FB4251C9F8568597C05F1748C37864)
Complete name : C:\Users\Семен\Downloads\A.Million.Ways.to.Die.in.the.West.2014.UNRATED.BluRay.1080p.DTS.x264-CHD.Xixidok.mkv
Format : Matroska
Format version : Version 4 / Version 2
File size : 11.1 GiB
Duration : 2h 14mn
Overall bit rate : 11.8 Mbps
Movie name : A.Million.Ways.to.Die.in.the.West.2014.UNRATED.BluRay.1080p.DTS.x264-CHD
Encoded date : UTC 2014-09-13 05:05:12
Writing application : mkvmerge v6.1.0 ('Old Devil') built on Mar 2 2013 14:32:37
Writing library : libebml v1.3.0 + libmatroska v1.4.0
Video
ID : 1
Format : AVC
Format/Info : Advanced Video Codec
Format profile : High@L4.1
Format settings, CABAC : Yes
Format settings, ReFrames : 5 frames
Codec ID : V_MPEG4/ISO/AVC
Duration : 2h 14mn
Bit rate : 10.1 Mbps
Width : 1 920 pixels
Height : 800 pixels
Display aspect ratio : 2.40:1
Frame rate mode : Constant
Frame rate : 23.976 fps
Color space : YUV
Chroma subsampling : 4:2:0
Bit depth : 8 bits
Scan type : Progressive
Bits/(Pixel*Frame) : 0.273
Stream size : 9.24 GiB (84%)
Title : Anonymous@CHD
Writing library : x264 core 142 r2431 ac76440
Encoding settings : cabac=1 / ref=5 / deblock=1:-3:-3 / analyse=0x3:0x113 / me=umh / subme=10 / psy=1 / psy_rd=1.00:0.05 / mixed_ref=1 / me_range=32 / chroma_me=1 / trellis=2 / 8x8dct=1 / cqm=0 / deadzone=21,11 / fast_pskip=0 / chroma_qp_offset=-2 / threads=18 / lookahead_threads=1 / sliced_threads=0 / nr=0 / decimate=1 / interlaced=0 / bluray_compat=0 / constrained_intra=0 / bframes=5 / b_pyramid=2 / b_adapt=2 / b_bias=0 / direct=3 / weightb=1 / open_gop=0 / weightp=2 / keyint=250 / keyint_min=23 / scenecut=40 / intra_refresh=0 / rc=2pass / mbtree=0 / bitrate=10058 / ratetol=1.0 / qcomp=0.70 / qpmin=0 / qpmax=69 / qpstep=4 / cplxblur=20.0 / qblur=0.5 / ip_ratio=1.40 / pb_ratio=1.30 / aq=2:0.90
Language : English
Default : Yes
Forced : No
Audio #1
ID : 2
Format : MPEG Audio
Format version : Version 1
Format profile : Layer 3
Codec ID : A_MPEG/L3
Codec ID/Hint : MP3
Duration : 2h 14mn
Bit rate mode : Constant
Bit rate : 192 Kbps
Channel(s) : 2 channels
Sampling rate : 44.1 KHz
Compression mode : Lossy
Stream size : 185 MiB (2%)
Language : Russian
Default : Yes
Forced : No
Audio #2
ID : 3
Format : DTS
Format/Info : Digital Theater Systems
Mode : 16
Format settings, Endianness : Big
Codec ID : A_DTS
Duration : 2h 14mn
Bit rate mode : Constant
Bit rate : 1 509 Kbps
Channel(s) : 6 channels
Channel positions : Front: L C R, Side: L R, LFE
Sampling rate : 48.0 KHz
Bit depth : 24 bits
Compression mode : Lossy
Stream size : 1.42 GiB (13%)
Title : English DTS 5.1 1509Kbps
Language : English
Default : No
Forced : No
Text
ID : 4
Format : UTF-8
Codec ID : S_TEXT/UTF8
Codec ID/Info : UTF-8 Plain Text
Title : Xixilok
Language : Russian
Default : No
Forced : No
Menu
00:00:00.000 : en:00:00:00.000
00:03:02.140 : en:00:03:02.140
00:10:16.115 : en:00:10:16.115
00:14:17.315 : en:00:14:17.315
00:20:15.214 : en:00:20:15.214
00:24:56.495 : en:00:24:56.495
00:35:36.843 : en:00:35:36.843
00:42:33.843 : en:00:42:33.843
00:48:56.225 : en:00:48:56.225
00:55:28.533 : en:00:55:28.533
01:02:34.125 : en:01:02:34.125
01:13:24.025 : en:01:13:24.025
01:22:45.961 : en:01:22:45.961
01:30:53.031 : en:01:30:53.031
01:35:20.089 : en:01:35:20.089
01:42:03.659 : en:01:42:03.659
01:45:44.380 : en:01:45:44.380
01:53:38.478 : en:01:53:38.478
02:01:40.585 : en:02:01:40.585
02:08:31.162 : en:02:08:31.162
Скриншоты
Скачать

Скачать торрент!

Как скачивать? · Что такое торрент? · Рейтинг и ограничения

Сайт не распространяет и не хранит электронные версии произведений, а лишь предоставляет доступ к создаваемому пользователями каталогу ссылок на торрент-файлы, которые содержат только списки хеш-сумм

[Профиль] [ЛС]
Показать сообщения:    
Ответить на тему

Текущее время: Сегодня 22:38

Часовой пояс: GMT + 4



Вы не можете начинать темы
Вы не можете отвечать на сообщения
Вы не можете редактировать свои сообщения
Вы не можете удалять свои сообщения
Вы не можете голосовать в опросах
Вы не можете прикреплять файлы к сообщениям
Вы не можете скачивать файлы