Ангел-А / Angel-A (Люк Бессон / Luc Besson) [2005, Франция, фэнтези, драма, мелодрама, комедия, BDRip 1080p] Dub + AVO (Гаврилов) + AVO (Алексеев) + Sub Rus, Eng + Original Fre

Ответить на тему
 
Автор Сообщение

user ®

Стаж: 7 лет 7 месяцев

Сообщений: 20008

Пост Пост: #1 от 30-Сен-2014 01:30

[Цитировать]

Ангел-А / Angel-A
Страна: Франция
Жанр: фэнтези, драма, мелодрама, комедия
Год выпуска: 2005
Продолжительность: 01:30:39-Перевод: Профессиональный (дублированный)
Перевод 2: Авторский (одноголосый закадровый) А.Гаврилов
Перевод 3: Авторский (одноголосый закадровый) А.Алексеев
Cубтитры: русские, английские
Оригинальная аудиодорожка: французский-Режиссер: Люк Бессон / Luc Besson
В ролях: Жамель Деббуз, Рье Расмуссен, Жильбер Мелки, Серж Рябукин, Аким Шир, Эрик Балье, Луис Пора, Венус Бун, Жером Жесдон, Мишель Белло
Описание: 28-летний Андре должен десятки тысяч евро различным бандитам по всему Парижу. Когда подходит срок расплаты, он понимает, что шансов расплатиться — нет. И в полиции, и в американском посольстве ему отказывают в помощи.
Но вот, решив покончить с собой, он видит на мосту сногсшибательную красотку в очень маленьком черном платье, которая прыгает в Сену. Андре бросается за ней. Спасенная девушка обещает помочь Андре во всем: она придумывает удивительные способы добывать деньги и помогает решить проблемы с кредиторами. Но тут Андре начинает задаваться вопросом — почему эта восхитительная девушка так старается ради него?-Доп. информация:
Дорожка с переводом Гаврилова с hdtracker, дорожка Алексеева с раздачи PUNCHLINE79797-Сэмпл: http://sendfile.su/1028488

Раздача от: Encode by SbR-Тип релиза: BDRip 1080p (Hercules 1997 Blu-ray NORDiC 1080p AVC DD5.1-HDCLUB)
Контейнер: MKV
Видео: 1920x820 at 24.000 fps, x264@L4.1, crf, ~11230 kbps avg
Аудио 1: Russian: 48 kHz, DTS, 3/2 (L,C,R,l,r) + LFE ch, ~755 kbps avg |Дубляж|
Аудио 2: Russian: 48 kHz, DTS, 3/2 (L,C,R,l,r) + LFE ch, ~1509 kbps avg |Одноголосый закадровый, А. Гаврилов|
Аудио 3: Russian: 48 kHz, AC3, 2/0 (L,R) ch, ~192 kbps avg |Одноголосый закадровый, А. Алексеев|
Аудио 4: French: 48 kHz, DTS, 3/2 (L,C,R,l,r) + LFE ch, ~1509 kbps avg
x264
x264 [info]: frame I:1011 Avg QP:11.25 size:276726
x264 [info]: frame P:36939 Avg QP:12.66 size:136461
x264 [info]: frame B:96128 Avg QP:13.57 size: 51994
x264 [info]: consecutive B-frames: 5.7% 4.3% 13.5% 33.3% 22.4% 13.4% 3.0% 1.5% 1.0% 1.0% 0.9%
MediaInfo
General
Unique ID : 214311394632287044927861154378211176068 (0xA13ADF8C4D04D85586F9F1B64FA8AE84)
Complete name : E:\Angel-A.2005.1080p.BluRay.3xRus.Fre.HDCLUB-SbR.mkv
Format : Matroska
Format version : Version 4 / Version 2
File size : 9.62 GiB
Duration : 1h 30mn
Overall bit rate : 15.2 Mbps
Movie name : Angel-A (2005) - Release for HDCLUB by SbR
Encoded date : UTC 2014-09-28 08:43:19
Writing application : mkvmerge v7.1.0 ('Good Love') 64bit built on Jul 27 2014 13:06:55
Writing library : libebml v1.3.0 + libmatroska v1.4.1
Cover : Yes
Attachment : Yes
Video
ID : 1
Format : AVC
Format/Info : Advanced Video Codec
Format profile : High@L4.1
Format settings, CABAC : Yes
Format settings, ReFrames : 5 frames
Codec ID : V_MPEG4/ISO/AVC
Duration : 1h 30mn
Bit rate : 10.9 Mbps
Width : 1 920 pixels
Height : 820 pixels
Display aspect ratio : 2.35:1
Frame rate mode : Constant
Frame rate : 24.000 fps
Color space : YUV
Chroma subsampling : 4:2:0
Bit depth : 8 bits
Scan type : Progressive
Bits/(Pixel*Frame) : 0.289
Stream size : 6.92 GiB (72%)
Title : Release for HDCLUB
Writing library : x264 core 142 r2479 dd79a61
Encoding settings : cabac=1 / ref=5 / deblock=1:-2:-2 / analyse=0x3:0x133 / me=umh / subme=11 / psy=1 / psy_rd=1.00:0.00 / mixed_ref=1 / me_range=32 / chroma_me=1 / trellis=2 / 8x8dct=1 / cqm=0 / deadzone=21,11 / fast_pskip=1 / chroma_qp_offset=-2 / threads=12 / lookahead_threads=3 / sliced_threads=0 / nr=0 / decimate=1 / interlaced=0 / bluray_compat=0 / constrained_intra=0 / bframes=10 / b_pyramid=2 / b_adapt=2 / b_bias=0 / direct=1 / weightb=1 / open_gop=0 / weightp=2 / keyint=250 / keyint_min=24 / scenecut=40 / intra_refresh=0 / rc_lookahead=60 / rc=crf / mbtree=0 / crf=16.0 / qcomp=0.70 / qpmin=0 / qpmax=69 / qpstep=4 / vbv_maxrate=62500 / vbv_bufsize=78125 / crf_max=0.0 / nal_hrd=none / filler=0 / ip_ratio=1.40 / pb_ratio=1.30 / aq=1:0.90
Language : French
Default : Yes
Forced : No
Color primaries : BT.709
Transfer characteristics : BT.709
Matrix coefficients : BT.709
Audio #1
ID : 2
Format : DTS
Format/Info : Digital Theater Systems
Mode : 16
Format settings, Endianness : Big
Codec ID : A_DTS
Duration : 1h 30mn
Bit rate mode : Constant
Bit rate : 755 Kbps
Channel(s) : 6 channels
Channel positions : Front: L C R, Side: L R, LFE
Sampling rate : 48.0 KHz
Bit depth : 24 bits
Compression mode : Lossy
Stream size : 489 MiB (5%)
Title : Dub
Language : Russian
Default : Yes
Forced : No
Audio #2
ID : 3
Format : DTS
Format/Info : Digital Theater Systems
Mode : 16
Format settings, Endianness : Big
Codec ID : A_DTS
Duration : 1h 30mn
Bit rate mode : Constant
Bit rate : 1 509 Kbps
Channel(s) : 6 channels
Channel positions : Front: L C R, Side: L R, LFE
Sampling rate : 48.0 KHz
Bit depth : 16 bits
Compression mode : Lossy
Stream size : 978 MiB (10%)
Title : Гаврилов
Language : Russian
Default : No
Forced : No
Audio #3
ID : 4
Format : AC-3
Format/Info : Audio Coding 3
Mode extension : CM (complete main)
Format settings, Endianness : Big
Codec ID : A_AC3
Duration : 1h 30mn
Bit rate mode : Constant
Bit rate : 192 Kbps
Channel(s) : 2 channels
Channel positions : Front: L R
Sampling rate : 48.0 KHz
Bit depth : 16 bits
Compression mode : Lossy
Stream size : 124 MiB (1%)
Title : Алексеев
Language : Russian
Default : No
Forced : No
Audio #4
ID : 5
Format : DTS
Format/Info : Digital Theater Systems
Mode : 16
Format settings, Endianness : Big
Codec ID : A_DTS
Duration : 1h 30mn
Bit rate mode : Constant
Bit rate : 1 509 Kbps
Channel(s) : 6 channels
Channel positions : Front: L C R, Side: L R, LFE
Sampling rate : 48.0 KHz
Bit depth : 16 bits
Compression mode : Lossy
Stream size : 978 MiB (10%)
Language : French
Default : No
Forced : No
Text #1
ID : 6
Format : UTF-8
Codec ID : S_TEXT/UTF8
Codec ID/Info : UTF-8 Plain Text
Language : Russian
Default : No
Forced : No
Text #2
ID : 7
Format : ASS
Codec ID : S_TEXT/ASS
Codec ID/Info : Advanced Sub Station Alpha
Compression mode : Lossless
Language : English
Default : No
Forced : No
Menu
00:00:00.000 : en:Understand?
00:08:21.833 : en:Until Midnight
00:13:30.500 : en:Help Me
00:21:35.333 : en:Is That What You Want?
00:30:01.708 : en:A Pledge
00:37:39.375 : en:Mr. Franck
00:44:27.125 : en:Take This
00:53:51.416 : en:You Can Help
01:00:53.625 : en:Fell Out of the Sky
01:08:26.916 : en:The Discotheque
01:16:38.000 : en:Want a Job?
01:22:37.541 : en:My Name Is Pedro
01:25:34.000 : en:Horse Racing
Скриншоты
Скачать

Скачать торрент!

Как скачивать? · Что такое торрент? · Рейтинг и ограничения

Сайт не распространяет и не хранит электронные версии произведений, а лишь предоставляет доступ к создаваемому пользователями каталогу ссылок на торрент-файлы, которые содержат только списки хеш-сумм

[Профиль] [ЛС]
Показать сообщения:    
Ответить на тему

Текущее время: Сегодня 20:37

Часовой пояс: GMT + 4



Вы не можете начинать темы
Вы не можете отвечать на сообщения
Вы не можете редактировать свои сообщения
Вы не можете удалять свои сообщения
Вы не можете голосовать в опросах
Вы не можете прикреплять файлы к сообщениям
Вы не можете скачивать файлы