Отпетые мошенники / Dirty Rotten Scoundrels (Фрэнк Оз / Frank Oz) [1988, США, комедия, HDTV 1080i]

Ответить на тему
 
Автор Сообщение

user ®

Стаж: 7 лет 7 месяцев

Сообщений: 20008

Пост Пост: #1 от 30-Сен-2014 01:30

[Цитировать]

Отпетые мошенники / Dirty Rotten Scoundrels Год выпуска: 1988
Страна: США
Жанр: комедия
Продолжительность: 01:45:23
Перевод: Профессиональный (многоголосый, закадровый)
Русские субтитры: нет
Режиссер: Фрэнк Оз/ Frank Oz
В ролях: Стив Мартин, Майкл Кейн, Гленн Хедли, Антон Роджерс, Барбара Харрис
Описание: Судьба сводит двух «отпетых мошенников» — Фредди Бенсона и Лоуренса Джемисона, специализирующихся в качестве жиголо в оболванивании богатеньких дам. В городке, где-то на юге Франции, Фредди сначала берет уроки у мэтра Лоуренса, но, повздорив, коллеги заключают пари: кто из них первый охмурит незнакомую богатую женщину, тот остается в городе, а проигравший должен убраться.
Предмет спора не замедлил явиться в виде симпатичной и обаятельной «мыльной королевы» Америки — Дженет. Друзьям невдомёк, что Дженет раскусила их сразу, затеяв с мошенниками свою игру
Релиз от: hdtracker
Качество: HDTV
Формат: TS
Контейнер: TS
Видео кодек: H.264
Аудио кодек: AC3
Видео: 1080i 1920x1088, 25 fps, 11.86 Mbps
Аудио: Rus: AC3: 6 ch, 48 KHz 384 Kbit/s (многоголосый) Rus: AC3: 6 ch, 48 KHz 384 Kbit/s (Михалёв) Eng: AC3: 6 ch, 48 KHz 384 Kbit/s
User Rating: 7.0/10 (17,221 votes)

MediaInfo
General
ID : 1 (0x1)
Complete name : L:\1988.Отпетые мошенники[Комедия,Криминал]»\1080p(1920x1088.11860(Eng,AVO(AC3.6ch.384)=9.15 GB.1926744.TS
Format : MPEG-TS
File size : 9.15 GiB
Duration : 1h 45mn
Overall bit rate mode : Variable
Overall bit rate : 12.4 Mbps
Maximum Overall bit rate : 35.5 Mbps
Video
ID : 4113 (0x1011)
Menu ID : 1 (0x1)
Format : AVC
Format/Info : Advanced Video Codec
Format profile : Main@L4.0
Format settings, CABAC : Yes
Format settings, ReFrames : 4 frames
Codec ID : 27
Duration : 1h 45mn
Bit rate mode : Variable
Bit rate : 10.7 Mbps
Maximum bit rate : 40.0 Mbps
Width : 1 920 pixels
Height : 1 080 pixels
Display aspect ratio : 16:9
Frame rate : 25.000 fps
Color space : YUV
Chroma subsampling : 4:2:0
Bit depth : 8 bits
Scan type : Interlaced
Bits/(Pixel*Frame) : 0.206
Stream size : 7.84 GiB (86%)
Color primaries : BT.709
Transfer characteristics : BT.709
Matrix coefficients : BT.709
Audio #1
ID : 4352 (0x1100)
Menu ID : 1 (0x1)
Format : AC-3
Format/Info : Audio Coding 3
Mode extension : CM (complete main)
Format settings, Endianness : Big
Codec ID : 129
Duration : 1h 45mn
Bit rate mode : Constant
Bit rate : 384 Kbps
Channel(s) : 6 channels
Channel positions : Front: L C R, Side: L R, LFE
Sampling rate : 48.0 KHz
Bit depth : 16 bits
Compression mode : Lossy
Delay relative to video : 51ms
Stream size : 289 MiB (3%)
Language : Russian
Audio #2
ID : 4353 (0x1101)
Menu ID : 1 (0x1)
Format : AC-3
Format/Info : Audio Coding 3
Mode extension : CM (complete main)
Format settings, Endianness : Big
Codec ID : 129
Duration : 1h 45mn
Bit rate mode : Constant
Bit rate : 384 Kbps
Channel(s) : 6 channels
Channel positions : Front: L C R, Side: L R, LFE
Sampling rate : 48.0 KHz
Bit depth : 16 bits
Compression mode : Lossy
Delay relative to video : 51ms
Stream size : 289 MiB (3%)
Language : Russian
Audio #3
ID : 4354 (0x1102)
Menu ID : 1 (0x1)
Format : AC-3
Format/Info : Audio Coding 3
Mode extension : CM (complete main)
Format settings, Endianness : Big
Codec ID : 129
Duration : 1h 45mn
Bit rate mode : Constant
Bit rate : 384 Kbps
Channel(s) : 6 channels
Channel positions : Front: L C R, Side: L R, LFE
Sampling rate : 48.0 KHz
Bit depth : 16 bits
Compression mode : Lossy
Delay relative to video : 51ms
Stream size : 289 MiB (3%)
Language : English
Скриншоты
ЗДЕСЬ ВСЕ МОИ РАЗДАЧИ
Скачать

Скачать торрент!

Как скачивать? · Что такое торрент? · Рейтинг и ограничения

Сайт не распространяет и не хранит электронные версии произведений, а лишь предоставляет доступ к создаваемому пользователями каталогу ссылок на торрент-файлы, которые содержат только списки хеш-сумм

[Профиль] [ЛС]
Показать сообщения:    
Ответить на тему

Текущее время: Сегодня 19:36

Часовой пояс: GMT + 4



Вы не можете начинать темы
Вы не можете отвечать на сообщения
Вы не можете редактировать свои сообщения
Вы не можете удалять свои сообщения
Вы не можете голосовать в опросах
Вы не можете прикреплять файлы к сообщениям
Вы не можете скачивать файлы