Куда уходит любовь (Андрей Селиванов) [2014, мелодрама, HDTVRip]

Ответить на тему
 
Автор Сообщение

user ®

Стаж: 7 лет 7 месяцев

Сообщений: 20008

Пост Пост: #1 от 30-Сен-2014 01:30

[Цитировать]

--Куда уходит любовь-- Жанр: мелодрама
Год выпуска: 2014
Продолжительность: 01:35:00--Режиссёр: Андрей Селиванов--В ролях: Мария Куликова, Сергей Астахов, Евгений Сидихин, Илья Коробко, Марина Волкова, Александр Левин (II), Людмила Чиркова--Описание: В жизни Натальи царит гармония и благополучие. Героиня работает учительницей в школе, счастливо замужем вторым браком за бизнесменом Стасом, а ее сын Ваня учится в институте.
Но за счастливым фасадом кроются тайны, которые не удастся скрывать вечно. Однажды Наталья узнаёт, что муж ведет двойную жизнь и за ее спиной встречается с другой женщиной. Героиня шокирована предательством, но вся правда приводит Наталью в ужас: любовницей Стаса оказывается невеста ее сына Вани..--Качество: HDTVRip / Сэмпл--Формат: AVI
Видео: 720x400 (1.80:1), 25 fps, XviD build 73 ~2073 kbps avg, 0.29 bit/pixel
Аудио: 48 kHz, AC3 Dolby Digital, 2/0 (L,R) ch, ~192 kbps--Автор рипа: SANNYa
-
-
MI
Общее
Полное имя : C:\Users\Александр\Desktop\Куда уходит любовь_2014_HDTVRip_by_SANNYa.avi
Формат : AVI
Формат/Информация : Audio Video Interleave
Размер файла : 1,46 Гбайт
Продолжительность : 1 ч. 32 м.
Общий поток : 2275 Кбит/сек
Программа кодирования : VirtualDubMod 1.5.10.3 | www.virtualdub-fr.org || (build 2550/release)
Библиотека кодирования : VirtualDubMod build 2550/release
Видео
Идентификатор : 0
Формат : MPEG-4 Visual
Профиль формата : Advanced Simple@L5
Параметр BVOP формата : 1
Параметр QPel формата : Нет
Параметр GMC формата : Без точки перехода
Параметр матрицы формата : Выборочная
Идентификатор кодека : XVID
Идентификатор кодека/Подсказка : XviD
Продолжительность : 1 ч. 32 м.
Битрейт : 2073 Кбит/сек
Ширина : 720 пикселей
Высота : 400 пикселей
Соотношение сторон : 16:9
Частота кадров : 25,000 кадров/сек
Цветовое пространство : YUV
Субдискретизация насыщенности : 4:2:0
Битовая глубина : 8 бит
Тип развёртки : Прогрессивная
Метод сжатия : С потерями
Бит/(Пиксели*Кадры) : 0.288
Размер потока : 1,33 Гбайт (91%)
Библиотека кодирования : XviD 73
Аудио
Идентификатор : 1
Формат : AC-3
Формат/Информация : Audio Coding 3
Расширение режима : CM (complete main)
Параметр Endianness формата : Big
Идентификатор кодека : 2000
Продолжительность : 1 ч. 32 м.
Вид битрейта : Постоянный
Битрейт : 192 Кбит/сек
Каналы : 2 канала
Расположение каналов : Front: L R
Частота : 48,0 КГц
Битовая глубина : 16 бит
Метод сжатия : С потерями
Размер потока : 127 Мбайт (8%)
Выравнивание : Разделение по промежуткам
Продолжительность промежутка : 40 мс. (1,00 видеокадр)
Время предзагрузки промежутка : 500 мс.
Сравнение
[url=http://***/forum/viewtopic.php?t=4737068]http://***/forum/viewtopic.php?t=4737068[/url]
http://screenshotcomparison.com/comparison/93566

-
-Скриншоты
-
-
Скачать

Скачать торрент!

Как скачивать? · Что такое торрент? · Рейтинг и ограничения

Сайт не распространяет и не хранит электронные версии произведений, а лишь предоставляет доступ к создаваемому пользователями каталогу ссылок на торрент-файлы, которые содержат только списки хеш-сумм

[Профиль] [ЛС]
Показать сообщения:    
Ответить на тему

Текущее время: Сегодня 17:26

Часовой пояс: GMT + 4



Вы не можете начинать темы
Вы не можете отвечать на сообщения
Вы не можете редактировать свои сообщения
Вы не можете удалять свои сообщения
Вы не можете голосовать в опросах
Вы не можете прикреплять файлы к сообщениям
Вы не можете скачивать файлы