Без права на ошибку (Александр Файнциммер) [1974, криминальная драма, SATRip-AVC]

Ответить на тему
 
Автор Сообщение

user ®

Стаж: 7 лет 7 месяцев

Сообщений: 20008

Пост Пост: #1 от 30-Сен-2014 01:30

[Цитировать]

Без права на ошибку
Жанр: криминальная драма
Год выпуска: 1974
Премьера: 6 октября 1975
Продолжительность: 01:22:22
Режиссёр: Александр Файнциммер
В ролях: Олег Жаков, Николай Мерзликин, Лев Прыгунов, Владимир Дружников, Виктор Маркин, Светлана Старикова, Нина Ильина, Юрий Потемкин, Алексей Панькин, Виктор Перевалов
Описание: Молодой рабочий Юнусов обвиняется в умышленном убийстве. Все улики и свидетельские показания неопровержимо свидетельствуют против него, но обвиняемый категорически отрицает свою причастность к преступлению. В ходе разбирательства всплывают детали, которые не вписываются в сложившуюся у судьи картину преступления...


Семпл
Качество видео: SATRip-AVC [Исходник: [url=http://***/forum/viewtopic.php?t=4833920]DVB[/url] (Спасибо Cheef mate)]
Формат видео: MKV
Видео: AVC (H.264), 704x320@750x320 (2.35:1), 25 fps, 1602 kbps avg, 0.284 bit/pixel
Аудио: AC3, 48 kHz, 16 bits, 192 kbps, 2ch
MediaInfo
Общее
Уникальный идентификатор : 253484224886484530414213594941892280553 (0xBEB34931A6B3B226A41BD466BC4740E9)
Полное имя : I:\Video\Без.права.на.ошибку.1974.SATRip-AVC.kvvk_2009.mkv
Формат : Matroska
Версия формата : Version 2
Размер файла : 1,03 Гбайт
Продолжительность : 1 ч. 22 м.
Общий поток : 1796 Кбит/сек
Дата кодирования : UTC 2014-09-29 13:35:47
Программа кодирования : mkvmerge v3.4.0 ('Rapunzel') built on May 15 2010 09:38:20
Библиотека кодирования : libebml v0.8.0 + libmatroska v0.9.0
Видео
Идентификатор : 1
Формат : AVC
Формат/Информация : Advanced Video Codec
Профиль формата : High@L4.1
Параметр CABAC формата : Да
Параметр ReFrames формата : 11 кадров
Идентификатор кодека : V_MPEG4/ISO/AVC
Продолжительность : 1 ч. 22 м.
Битрейт : 1602 Кбит/сек
Ширина : 704 пикселя
Высота : 320 пикселей
Соотношение сторон : 2,35:1
Соотношение сторон в оригинале : 2,35:1
Частота кадров : 25,000 кадров/сек
Цветовое пространство : YUV
Субдискретизация насыщенности : 4:2:0
Битовая глубина : 8 бит
Тип развёртки : Прогрессивная
Бит/(Пиксели*Кадры) : 0.284
Размер потока : 924 Мбайт (87%)
Библиотека кодирования : x264 core 142 r2431 ac76440
Настройки программы : cabac=1 / ref=11 / deblock=1:-2:-2 / analyse=0x3:0x113 / me=umh / subme=11 / psy=1 / psy_rd=1.00:0.15 / mixed_ref=1 / me_range=48 / chroma_me=1 / trellis=2 / 8x8dct=1 / cqm=0 / deadzone=21,11 / fast_pskip=1 / chroma_qp_offset=-3 / threads=6 / lookahead_threads=1 / sliced_threads=0 / nr=0 / decimate=0 / interlaced=0 / bluray_compat=0 / constrained_intra=0 / bframes=8 / b_pyramid=2 / b_adapt=2 / b_bias=0 / direct=3 / weightb=1 / open_gop=0 / weightp=2 / keyint=250 / keyint_min=25 / scenecut=40 / intra_refresh=0 / rc_lookahead=50 / rc=2pass / mbtree=0 / bitrate=1602 / ratetol=1.0 / qcomp=0.60 / qpmin=0 / qpmax=51 / qpstep=4 / cplxblur=20.0 / qblur=0.5 / vbv_maxrate=50000 / vbv_bufsize=62500 / nal_hrd=none / filler=0 / ip_ratio=1.40 / pb_ratio=1.30 / aq=1:0.90
Язык : Russian
Default : Нет
Forced : Нет
Аудио
Идентификатор : 2
Формат : AC-3
Формат/Информация : Audio Coding 3
Расширение режима : CM (complete main)
Идентификатор кодека : A_AC3
Продолжительность : 1 ч. 22 м.
Вид битрейта : Постоянный
Битрейт : 192 Кбит/сек
Каналы : 2 канала
Расположение каналов : Front: L R
Частота : 48,0 КГц
Битовая глубина : 16 бит
Метод сжатия : С потерями
Размер потока : 113 Мбайт (11%)
Заголовок : AC3 2ch @ 192kbps
Язык : Russian
Default : Да
Forced : Нет
Сравнение
Сравнение с [url=http://***/forum/viewtopic.php?t=2353315]http://***/forum/viewtopic.php?t=2353315[/url]
http://screenshotcomparison.com/comparison/93576/picture:0
Скриншот c названием фильма Скриншоты
Скачать

Скачать торрент!

Как скачивать? · Что такое торрент? · Рейтинг и ограничения

Сайт не распространяет и не хранит электронные версии произведений, а лишь предоставляет доступ к создаваемому пользователями каталогу ссылок на торрент-файлы, которые содержат только списки хеш-сумм

[Профиль] [ЛС]
Показать сообщения:    
Ответить на тему

Текущее время: Сегодня 22:21

Часовой пояс: GMT + 4



Вы не можете начинать темы
Вы не можете отвечать на сообщения
Вы не можете редактировать свои сообщения
Вы не можете удалять свои сообщения
Вы не можете голосовать в опросах
Вы не можете прикреплять файлы к сообщениям
Вы не можете скачивать файлы