Американская сила / American Muscle (Рави Дхар / Ravi Dhar) [2014, США, боевик, криминал, BDRip-AVC] VO + Original (Eng)

Ответить на тему
 
Автор Сообщение

user ®

Стаж: 7 лет 7 месяцев

Сообщений: 20008

Пост Пост: #1 от 30-Сен-2014 01:30

[Цитировать]

Американская сила / American Muscle
Страна: США
Жанр: боевик, криминал
Год выпуска: 2014
Продолжительность: 01:17:35
Перевод: Одноголосый закадровый - Хихикающий доктор, перевод - river11
Оригинальная аудиодорожка: английский
Cубтитры: нет-Режиссер: Рави Дхар / Ravi Dhar
В ролях: Ник Принсип (John Falcon), Робин Сидни (Darling), Тодд Фармер (Sam Falcon), Трент Хаага (Styles), Джон Фэллон (Tongues), Тревис Стивенс (Rocco), Джордж П. Вилбур (Prison Clerk), Дженнифер Герт (Tura the Bartender), Кэрри Крогстад (Motel Girl), Джошуа Лу Фридман (Sinko)-Описание: Они забрали у него все, включая деньги, жену, репутацию и свободу. Джон Фэлкон отсидел 10 лет. И теперь он вышел с одной мыслью - отправить их всех в ад...-СЭМПЛ
Тип релиза: BDRip-AVC
Исходник: American.Muscle.2014.1080p.BluRay.REMUX.AVC.DTS-HD.MA.5.1-RARBG
Контейнер: MKV
Видео: 1152x490p / 24.000 fps / 2.35:1 / High Profile 4.1 / AVC / ~ 2038 Kbps
Аудио 1: AC3 / 192 Kbps / 2.0 / 48 kHz / Russian / VO - Xixidok
Аудио 2: AC3 / 448 Kbps / 5.1 / 48 kHz / English / original-IMDB * КиноПоиск
MediaInfo / x264 log
General
Complete name : American.Muscle.2014.BDRip-AVC.VO.mkv
Format : Matroska
Format version : Version 2
File size : 1.45 GiB
Duration : 1h 17mn
Overall bit rate : 2 680 Kbps
Encoded date : UTC 2014-09-29 08:41:30
Writing application : mkvmerge v5.8.0 ('No Sleep / Pillow') built on Sep 2 2012 15:37:04
Writing library : libebml v1.2.3 + libmatroska v1.3.0
Video
ID : 1
Format : AVC
Format/Info : Advanced Video Codec
Format profile : High@L4.1
Format settings, CABAC : Yes
Format settings, ReFrames : 12 frames
Codec ID : V_MPEG4/ISO/AVC
Duration : 1h 17mn
Bit rate : 2 038 Kbps
Width : 1 152 pixels
Height : 490 pixels
Display aspect ratio : 2.35:1
Frame rate mode : Constant
Frame rate : 24.000 fps
Color space : YUV
Chroma subsampling : 4:2:0
Bit depth : 8 bits
Scan type : Progressive
Bits/(Pixel*Frame) : 0.150
Stream size : 1.08 GiB (74%)
Title : American Muscle 2014
Writing library : x264 core 142 r2479 dd79a61
Encoding settings : cabac=1 / ref=12 / deblock=1:-3:-3 / analyse=0x3:0x113 / me=umh / subme=11 / psy=1 / psy_rd=1.05:0.00 / mixed_ref=1 / me_range=32 / chroma_me=1 / trellis=2 / 8x8dct=1 / cqm=0 / deadzone=21,11 / fast_pskip=1 / chroma_qp_offset=-2 / threads=6 / lookahead_threads=1 / sliced_threads=0 / nr=0 / decimate=1 / interlaced=0 / bluray_compat=0 / constrained_intra=0 / bframes=8 / b_pyramid=2 / b_adapt=2 / b_bias=0 / direct=3 / weightb=1 / open_gop=0 / weightp=2 / keyint=240 / keyint_min=23 / scenecut=40 / intra_refresh=0 / rc=2pass / mbtree=0 / bitrate=2038 / ratetol=1.0 / qcomp=0.60 / qpmin=0 / qpmax=69 / qpstep=4 / cplxblur=20.0 / qblur=0.5 / ip_ratio=1.40 / pb_ratio=1.30 / aq=2:0.90
Default : Yes
Forced : No
Audio #1
ID : 2
Format : AC-3
Format/Info : Audio Coding 3
Mode extension : CM (complete main)
Format settings, Endianness : Big
Codec ID : A_AC3
Duration : 1h 17mn
Bit rate mode : Constant
Bit rate : 192 Kbps
Channel(s) : 2 channels
Channel positions : Front: L R
Sampling rate : 48.0 KHz
Bit depth : 16 bits
Compression mode : Lossy
Stream size : 107 MiB (7%)
Title : RUS AC3 192 2ch VO Xixidok
Language : Russian
Default : Yes
Forced : No
Audio #2
ID : 3
Format : AC-3
Format/Info : Audio Coding 3
Mode extension : CM (complete main)
Format settings, Endianness : Big
Codec ID : A_AC3
Duration : 1h 17mn
Bit rate mode : Constant
Bit rate : 448 Kbps
Channel(s) : 6 channels
Channel positions : Front: L C R, Side: L R, LFE
Sampling rate : 48.0 KHz
Bit depth : 16 bits
Compression mode : Lossy
Stream size : 249 MiB (17%)
Title : ENG AC3 448 6ch original
Language : English
Default : No
Forced : No
Menu
00:00:00.000 : :Chapter 01
00:07:55.750 : :Chapter 02
00:14:32.791 : :Chapter 03
00:20:44.958 : :Chapter 04
00:27:55.333 : :Chapter 05
00:33:33.083 : :Chapter 06
00:42:09.125 : :Chapter 07
00:47:39.708 : :Chapter 08
00:54:23.875 : :Chapter 09
01:02:42.875 : :Chapter 10
01:09:11.333 : :Chapter 11
01:13:54.875 : :Chapter 12
01:17:32.916 : :Chapter 13-x264 [info]: frame I:897 Avg QP:13.42 size: 54701
x264 [info]: frame P:29472 Avg QP:16.25 size: 19341
x264 [info]: frame B:81352 Avg QP:18.79 size: 6968
x264 [info]: consecutive B-frames: 4.9% 5.8% 12.7% 24.4% 18.2% 28.3% 3.1% 1.3% 1.3%
Скриншот с названием Скриншоты
Скачать

Скачать торрент!

Как скачивать? · Что такое торрент? · Рейтинг и ограничения

Сайт не распространяет и не хранит электронные версии произведений, а лишь предоставляет доступ к создаваемому пользователями каталогу ссылок на торрент-файлы, которые содержат только списки хеш-сумм

[Профиль] [ЛС]
Показать сообщения:    
Ответить на тему

Текущее время: Сегодня 03:14

Часовой пояс: GMT + 4



Вы не можете начинать темы
Вы не можете отвечать на сообщения
Вы не можете редактировать свои сообщения
Вы не можете удалять свои сообщения
Вы не можете голосовать в опросах
Вы не можете прикреплять файлы к сообщениям
Вы не можете скачивать файлы