Снайпер: Наследие / Sniper: Legacy (Дон Майкл Пол / Don Michael Paul) [2014, США, боевик, WEB-DLRip] MVO (iTunes)

Ответить на тему
 
Автор Сообщение

user ®

Стаж: 7 лет 7 месяцев

Сообщений: 20008

Пост Пост: #1 от 30-Сен-2014 01:30

[Цитировать]

Снайпер: Наследие / Sniper: Legacy
Страна: США
Жанр: боевик
Год выпуска: 2014
Продолжительность: 01:37:59
Перевод: Профессиональный (многоголосый закадровый) iTunes
Cубтитры: нет
Режиссер: Дон Майкл Пол / Don Michael Paul
В ролях: Том Беренджер, Чад Коллинз, Деннис Хейсбёрт, Асен Асенов, Василь Энев, Данко Йорданов, Доминик Мафэм, Мерседес Масон, Вун Янг Парк, Райчо Василев
Описание: Брендону сообщают, что дезертировавший американский снайпер убил его отца. Собрав небольшой отряд, он решает выследить убийцу. В процессе поисков он узнает, что его отец не умер, после чего Брендон начинает понимать, что старшие офицеры использовали его в качестве приманки…
Сэмпл: http://multi-up.com/1002558
Качество видео: WEB-DLRip
Формат видео: AVI
Видео: 720x400 (4:2:0), 23.976 fps, XviD 1.2.1 ~1604 kbps avg, 0.232 bit/pixel
Аудио: 48.0 kHz, AC3 Dolby Digital, 6 ch, ~384 kbps
MediaInfo
General
Complete name : F:\Download\Sniper.Nasledie..avi
Format : AVI
Format/Info : Audio Video Interleave
File size : 1.37 GiB
Duration : 1h 37mn
Overall bit rate : 1 998 Kbps
Writing application : VirtualDubMod 1.5.10.2 (build 2540/release)
Writing library : VirtualDubMod build 2540/release
Video
ID : 0
Format : MPEG-4 Visual
Format profile : Advanced Simple@L5
Format settings, BVOP : 2
Format settings, QPel : No
Format settings, GMC : No warppoints
Format settings, Matrix : Default (MPEG)
Codec ID : XVID
Codec ID/Hint : XviD
Duration : 1h 37mn
Bit rate : 1 604 Kbps
Width : 720 pixels
Height : 400 pixels
Display aspect ratio : 16:9
Frame rate : 23.976 fps
Color space : YUV
Chroma subsampling : 4:2:0
Bit depth : 8 bits
Scan type : Progressive
Compression mode : Lossy
Bits/(Pixel*Frame) : 0.232
Stream size : 1.10 GiB (80%)
Writing library : XviD 1.2.1 (UTC 2008-12-04)
Audio
ID : 1
Format : AC-3
Format/Info : Audio Coding 3
Mode extension : CM (complete main)
Format settings, Endianness : Big
Codec ID : 2000
Duration : 1h 37mn
Bit rate mode : Constant
Bit rate : 384 Kbps
Channel(s) : 6 channels
Channel positions : Front: L C R, Side: L R, LFE
Sampling rate : 48.0 KHz
Bit depth : 16 bits
Compression mode : Lossy
Stream size : 269 MiB (19%)
Alignment : Split accross interleaves
Interleave, duration : 42 ms (1.00 video frame)
Interleave, preload duration : 500 ms
Скриншот c названием фильма Скриншоты
Скачать

Скачать торрент!

Как скачивать? · Что такое торрент? · Рейтинг и ограничения

Сайт не распространяет и не хранит электронные версии произведений, а лишь предоставляет доступ к создаваемому пользователями каталогу ссылок на торрент-файлы, которые содержат только списки хеш-сумм

[Профиль] [ЛС]
Показать сообщения:    
Ответить на тему

Текущее время: Сегодня 17:30

Часовой пояс: GMT + 4



Вы не можете начинать темы
Вы не можете отвечать на сообщения
Вы не можете редактировать свои сообщения
Вы не можете удалять свои сообщения
Вы не можете голосовать в опросах
Вы не можете прикреплять файлы к сообщениям
Вы не можете скачивать файлы