Хотел бы я быть здесь / Wish I Was Here (Зак Брафф / Zach Braff) [2014, США, драма, комедия, WEB-DLRip] Dub (iTunes)

Ответить на тему
 
Автор Сообщение

user ®

Стаж: 7 лет 7 месяцев

Сообщений: 20008

Пост Пост: #1 от 30-Сен-2014 01:30

[Цитировать]

Хотел бы я быть здесь / Wish I Was Here
Страна: США
Жанр: драма, комедия
Год выпуска: 2014
Продолжительность: 01:41:53
Перевод: Профессиональный (дублированный) iTunes
Cубтитры: нет
Режиссер: Зак Брафф / Zach Braff
В ролях: Зак Брафф, Джош Гэд, Кейт Хадсон, Джим Парсонс, Джоуи Кинг, Эшли Грин, Мэнди Пэтинкин, Дональд Фейзон, Джеймс Эйвери, Майкл Уэстон, Пирс Ганьон, Александр Чаплин, Лесли Дэвид Бейкер, Аллан Рич, МакКейли Миллер
Описание: История Айдана Блума — актера, отца и мужа, который в свои 35 лет все еще пытается найти себя, цель своей жизни. Уча жизни двух своих детей, Айдан постепенно обнаруживает некоторые части себя, которые он не мог найти раньше…
Сэмпл: http://multi-up.com/1002562
Качество видео: WEB-DLRip
Формат видео: AVI
Видео: 720x320 (2.25:1), 25.000 fps, XviD 1.2.1 ~1659 kbps avg, 0.288 bit/pixel
Аудио: 48 kHz, AC-3, 6 ch, ~384 kbps

MediaInfo
General
Complete name : F:\Download\Hotel.by.ja.byt.zdes.avi
Format : AVI
Format/Info : Audio Video Interleave
File size : 1.46 GiB
Duration : 1h 41mn
Overall bit rate : 2 053 Kbps
Writing application : VirtualDubMod 1.5.10.3 | www.virtualdub-fr.org || (build 2550/release)
Writing library : VirtualDubMod build 2550/release
Video
ID : 0
Format : MPEG-4 Visual
Format profile : Advanced Simple@L5
Format settings, BVOP : 2
Format settings, QPel : No
Format settings, GMC : No warppoints
Format settings, Matrix : Default (MPEG)
Codec ID : XVID
Codec ID/Hint : XviD
Duration : 1h 41mn
Bit rate : 1 659 Kbps
Width : 720 pixels
Height : 320 pixels
Display aspect ratio : 2.25:1
Frame rate : 25.000 fps
Color space : YUV
Chroma subsampling : 4:2:0
Bit depth : 8 bits
Scan type : Progressive
Compression mode : Lossy
Bits/(Pixel*Frame) : 0.288
Stream size : 1.18 GiB (81%)
Writing library : XviD 1.2.1 (UTC 2008-12-04)
Audio
ID : 1
Format : AC-3
Format/Info : Audio Coding 3
Mode extension : CM (complete main)
Format settings, Endianness : Big
Codec ID : 2000
Duration : 1h 41mn
Bit rate mode : Constant
Bit rate : 384 Kbps
Channel(s) : 6 channels
Channel positions : Front: L C R, Side: L R, LFE
Sampling rate : 48.0 KHz
Bit depth : 16 bits
Compression mode : Lossy
Stream size : 280 MiB (19%)
Alignment : Split accross interleaves
Interleave, duration : 40 ms (1.00 video frame)
Interleave, preload duration : 500 ms
Скриншот c названием фильма Скриншоты
Скачать

Скачать торрент!

Как скачивать? · Что такое торрент? · Рейтинг и ограничения

Сайт не распространяет и не хранит электронные версии произведений, а лишь предоставляет доступ к создаваемому пользователями каталогу ссылок на торрент-файлы, которые содержат только списки хеш-сумм

[Профиль] [ЛС]
Показать сообщения:    
Ответить на тему

Текущее время: Сегодня 04:11

Часовой пояс: GMT + 4



Вы не можете начинать темы
Вы не можете отвечать на сообщения
Вы не можете редактировать свои сообщения
Вы не можете удалять свои сообщения
Вы не можете голосовать в опросах
Вы не можете прикреплять файлы к сообщениям
Вы не можете скачивать файлы