Военная история / War Story (Марк Джексон / Mark Jackson) [2014, США, драма, WEB-DLRip] VO (PashaUP) + Original Eng

Ответить на тему
 
Автор Сообщение

user ®

Стаж: 7 лет 7 месяцев

Сообщений: 20008

Пост Пост: #1 от 29-Сен-2014 14:45

[Цитировать]

Военная история / War Story
Страна: США
Жанр: драма
Год выпуска: 2014
Продолжительность: 01:29:16
Перевод: Одноголосый закадровый PashaUP
Cубтитры: нет
Оригинальная аудиодорожка: английский
Режиссер: Марк Джексон / Mark Jackson
В ролях: Кэтрин Кинер, Бен Кингсли, Хафсия Херци, Винченцо Амато, Донателла Финокьяро, Гвидо Каприно, Луана Тоскано, Розарио Петикс, Джузеппе Петикс
Описание: Ли — военный фотограф, долгое время работала в зонах военных конфликтов, документируя катастрофы, которые переживают другие люди. Она только что пережила собственный кошмар — побывала в заложниках в Ливии. Пытаясь найти успокоение, вместо возвращения в Нью-Йорк, где ее ждут коллеги и близкие, она направляется в Сицилию. Ли селится в маленьком отеле, расположенном недалеко от дома ее бывшего любовника и наставника, и пытается справиться с посттравматическим синдромом.
Доп. информация:

Сэмпл: http://multi-up.com/1002429
Качество видео: WEB-DLRip
Формат видео: AVI
Видео: 720x304 (2.37:1), 23.976 fps, XviD build 50 ~1818 kbps avg, 0.35 bit/pixel
Аудио: 48 kHz, MPEG Layer 3, 2 ch, ~128.00 kbps avg Rus
Аудио 2: 48 kHz, MPEG Layer 3, 2 ch, ~256.00 kbps avg Eng
MediaInfo
General
Complete name : C:\Users\Вика\Desktop\War.Story.WEB-DLRip.2014.avi
Format : AVI
Format/Info : Audio Video Interleave
File size : 1.38 GiB
Duration : 1h 29mn
Overall bit rate : 2 217 Kbps
Writing application : VirtualDubModRus 1.5.10.2 (build 2542/release)
Writing library : VirtualDubMod build 2542/release
Video
ID : 0
Format : MPEG-4 Visual
Format profile : Advanced Simple@L5
Format settings, BVOP : Yes
Format settings, QPel : No
Format settings, GMC : No warppoints
Format settings, Matrix : Default (H.263)
Codec ID : XVID
Codec ID/Hint : XviD
Duration : 1h 29mn
Bit rate : 1 820 Kbps
Width : 720 pixels
Height : 304 pixels
Display aspect ratio : 2.35:1
Frame rate : 23.976 fps
Color space : YUV
Chroma subsampling : 4:2:0
Bit depth : 8 bits
Scan type : Progressive
Compression mode : Lossy
Bits/(Pixel*Frame) : 0.347
Stream size : 1.13 GiB (82%)
Writing library : XviD 1.2.1 (UTC 2008-12-04)
Audio #1
ID : 1
Format : MPEG Audio
Format version : Version 1
Format profile : Layer 3
Mode : Joint stereo
Codec ID : 55
Codec ID/Hint : MP3
Duration : 1h 29mn
Bit rate mode : Constant
Bit rate : 128 Kbps
Channel count : 2 channels
Sampling rate : 48.0 KHz
Compression mode : Lossy
Stream size : 81.7 MiB (6%)
Alignment : Aligned on interleaves
Interleave, duration : 42 ms (1.00 video frame)
Interleave, preload duration : 504 ms
Audio #2
ID : 2
Format : MPEG Audio
Format version : Version 1
Format profile : Layer 3
Codec ID : 55
Codec ID/Hint : MP3
Duration : 1h 29mn
Bit rate mode : Constant
Bit rate : 256 Kbps
Channel count : 2 channels
Sampling rate : 48.0 KHz
Compression mode : Lossy
Stream size : 163 MiB (12%)
Alignment : Aligned on interleaves
Interleave, duration : 42 ms (1.00 video frame)
Interleave, preload duration : 504 ms
Writing library : LAME3.99r
Encoding settings : -m s -V 4 -q 0 -lowpass 19.7
Скриншоты
Скачать

Скачать торрент!

Как скачивать? · Что такое торрент? · Рейтинг и ограничения

Сайт не распространяет и не хранит электронные версии произведений, а лишь предоставляет доступ к создаваемому пользователями каталогу ссылок на торрент-файлы, которые содержат только списки хеш-сумм

[Профиль] [ЛС]
Показать сообщения:    
Ответить на тему

Текущее время: Сегодня 18:26

Часовой пояс: GMT + 4



Вы не можете начинать темы
Вы не можете отвечать на сообщения
Вы не можете редактировать свои сообщения
Вы не можете удалять свои сообщения
Вы не можете голосовать в опросах
Вы не можете прикреплять файлы к сообщениям
Вы не можете скачивать файлы