Космическая станция 76 / Space Station 76 (Джек Плотник / Jack Plotnick) [2014, США, Фантастика, Комедии, Драмы, WEB-DLRip] MVO (iTunes)

Ответить на тему
 
Автор Сообщение

user ®

Стаж: 7 лет 7 месяцев

Сообщений: 20008

Пост Пост: #1 от 29-Сен-2014 14:45

[Цитировать]

Космическая станция 76 / Space Station 76
Страна: США, Om Films, Rival Pictures
Жанр: Фантастика, Комедии, Драмы
Год выпуска: 2014
Продолжительность: 01:34:51
Перевод: Профессиональный (многоголосый закадровый) [iTunes]
Cубтитры: нет
Оригинальная аудиодорожка: нет
Режиссер: Джек Плотник / Jack Plotnick
В ролях: Патрик Уилсон, Лив Тайлер, Мариса Кохлан, Мэтт Бомер, Джерри О`Коннелл, Кайли Роджерс, Кали Роча, Виктор Тогунде, Сэм Пэнкейк, Майкл Стоянов
Описание: Фильм «Космическая станция 76» (Space Station 76) – фантастическая трагикомедия, действие которой происходит в далеком будущем, в той его версии, каким оно представлялось людям из 1970-х годов. Мисти (Мариса Кохлан), тридцатилетняя сексуальная домохозяйка, одним из преимуществ своего пребывания на комической станции считает возможность провести время с доктором Вотом. Это не может не расстраивать ее мужа, техника Теда (Мэтт Бомер), который очень сожалеет о том, что они уже не могут вернуться в то время, когда жена была влюблена в него и посвящала себя воспитанию их дочери, Саншайн. Жизнь на комической станции, на самом деле, не сильно отличается от того, как жили люди в пригородах крупных американских городов в 1970-е годы, за исключением, может быть, наличия капитана Гленна Терри (Патрик Уилсон), мужчины с суицидальными наклонностями, находящегося у руля корабля. В попытке бороться с его бисексуальностью Глен раскрывает секрет о том, что у него был роман с его бывшим помощником Дэниелом, который покинул судно при загадочных обстоятельствах. Ему на смену пришла Джессика Марлоу (Лив Тайлер), амбициозная феминистка, чье появление на корабле стало причиной всплеска напряженности в отношениях всего экипажа.Уставшая от монотонности и рутины Мисти – не единственная на космической станции 76, кто ищет утешения. Переживая от потери Дэниела, Гленн пьет гораздо больше, чем это может себе позволить капитан. Тем самым он ставит под угрозу судьбы людей на борту. Что однажды едва не приводит к столкновению с астероидом. Джессика приходит в ярость от такой некомпетентности, и характеры этих персонажей сталкиваются. Ежегодный праздник корабля – шанс для примирения всех героев картины «Космическая станция 76». Смогут ли они загладить свою вину и делать то, что будет лучше для их будущего, или же их жизни продолжат медленно катиться в хаос?
Сэмпл: http://sendfile.su/1028563
Качество видео: WEB-DLRip
Формат видео: AVI
Видео: 720x304 (2.37:1), 23.976 fps, XviD build 50 ~1667 kbps avg, 0.32 bit/pixel
Аудио: 48 kHz, AC3 Dolby Digital, 3/2 (L,C,R,l,r) + LFE ch, ~384 kbps
MediaInfo
General
Complete name : K0smi4eskaya.St4nciya.76.2014.P.WEBDLRip.1400MB.avi
Format : AVI
Format/Info : Audio Video Interleave
File size : 1.37 GiB
Duration : 1h 34mn
Overall bit rate : 2 061 Kbps
Writing application : VirtualDubMod 1.5.10.3 | www.virtualdub-fr.org || (build 2550/release)
Writing library : VirtualDubMod build 2550/release
Video
ID : 0
Format : MPEG-4 Visual
Format profile : Advanced Simple@L5
Format settings, BVOP : 2
Format settings, QPel : No
Format settings, GMC : No warppoints
Format settings, Matrix : Custom
Codec ID : XVID
Codec ID/Hint : XviD
Duration : 1h 34mn
Bit rate : 1 668 Kbps
Width : 720 pixels
Height : 304 pixels
Display aspect ratio : 2.35:1
Frame rate : 23.976 fps
Color space : YUV
Chroma subsampling : 4:2:0
Bit depth : 8 bits
Scan type : Progressive
Compression mode : Lossy
Bits/(Pixel*Frame) : 0.318
Stream size : 1.11 GiB (81%)
Writing library : XviD 1.2.1 (UTC 2008-12-04)
Audio
ID : 1
Format : AC-3
Format/Info : Audio Coding 3
Mode extension : CM (complete main)
Format settings, Endianness : Big
Codec ID : 2000
Duration : 1h 34mn
Bit rate mode : Constant
Bit rate : 384 Kbps
Channel(s) : 6 channels
Channel positions : Front: L C R, Side: L R, LFE
Sampling rate : 48.0 KHz
Bit depth : 16 bits
Compression mode : Lossy
Stream size : 261 MiB (19%)
Alignment : Split accross interleaves
Interleave, duration : 42 ms (1.00 video frame)
Interleave, preload duration : 500 ms
Скриншот с названием фильма Скриншоты
Скачать

Скачать торрент!

Как скачивать? · Что такое торрент? · Рейтинг и ограничения

Сайт не распространяет и не хранит электронные версии произведений, а лишь предоставляет доступ к создаваемому пользователями каталогу ссылок на торрент-файлы, которые содержат только списки хеш-сумм

[Профиль] [ЛС]
Показать сообщения:    
Ответить на тему

Текущее время: Сегодня 22:29

Часовой пояс: GMT + 4



Вы не можете начинать темы
Вы не можете отвечать на сообщения
Вы не можете редактировать свои сообщения
Вы не можете удалять свои сообщения
Вы не можете голосовать в опросах
Вы не можете прикреплять файлы к сообщениям
Вы не можете скачивать файлы