Миллион способов потерять голову / Миллион способов умереть на Диком Западе / A Million Ways to Die in the West (Сет МакФарлейн / Seth MacFarlane) [2014, США, комедия, вестерн, HDRip] [Unrated] MVO (Filiza Studio) + Sub Rus

Ответить на тему
 
Автор Сообщение

user ®

Стаж: 7 лет 7 месяцев

Сообщений: 20008

Пост Пост: #1 от 29-Сен-2014 08:25

[Цитировать]

Миллион способов потерять голову / Миллион способов умереть на Диком Западе / A Million Ways to Die in the West / Unrated
Страна: США
Жанр: комедия, вестерн
Год выпуска: 2014
Продолжительность: 02:14:44
Перевод: Профессиональный (многоголосый закадровый) Filiza Studio
Cубтитры: русские (внешние на расширенные места)
Оригинальная аудиодорожка: нет
Режиссер: Сет МакФарлейн / Seth MacFarlane
В ролях: Сет МакФарлейн, Шарлиз Терон, Аманда Сайфред, Лиам Нисон, Джованни Рибизи, Нил Патрик Харрис, Сара Силверман, Кристофер Хэйген, Уэс Стьюди, Мэтт Кларк
Описание: Угораздило же влюбиться не в том месте и не в то время. Здесь хамят в ресторанах, о горячей воде слагают легенды, да и с транспортом полный коллапс. Но у таинственной незнакомки отменная фигура, да и стреляет она без промаха. Кто же по своей воле откажется от такой красотки?
Доп. информация: Озвучивание: Профессиональное (многоголосое) [FiliZa Studio] - Присутствует ненормативная лексика
Синхронизация звука с театральной версии на расширенную и перевод субтитров (на расширенные места) Хихикающий доктор
Субтитры: Русские (на расширенные места) 20 мин
Сэмпл: http://multi-up.com/996543
Качество видео: HDRip
Формат видео: AVI
Видео: XviD, 1192 Кбит/c, 720x304, 23.976 кадр/с
Аудио: MP3, 2 ch, 192 Кбит/с, 44.1 KHz
Формат субтитров: softsub (SRT)
MediaInfo
General
Complete name : C:\Users\Семен\Downloads\A.Million.Ways.to.Die.in.the.West.2014.UNRATED.Xixidok\A.Million.Ways.to.Die.in.the.West.2014.UNRATED.Xixidok.avi
Format : AVI
Format/Info : Audio Video Interleave
File size : 1.31 GiB
Duration : 2h 14mn
Overall bit rate : 1 393 Kbps
Writing application : VirtualDubMod 1.5.10.3 (build 2550/release)
Writing library : VirtualDubMod build 2550/release
Video
ID : 0
Format : MPEG-4 Visual
Format profile : Advanced Simple@L5
Format settings, BVOP : 2
Format settings, QPel : No
Format settings, GMC : No warppoints
Format settings, Matrix : Default (H.263)
Muxing mode : Packed bitstream
Codec ID : XVID
Codec ID/Hint : XviD
Duration : 2h 14mn
Bit rate : 1 192 Kbps
Width : 720 pixels
Height : 304 pixels
Display aspect ratio : 2.35:1
Frame rate : 23.976 fps
Color space : YUV
Chroma subsampling : 4:2:0
Bit depth : 8 bits
Scan type : Progressive
Compression mode : Lossy
Bits/(Pixel*Frame) : 0.227
Stream size : 1.12 GiB (86%)
Writing library : XviD 65
Audio
ID : 1
Format : MPEG Audio
Format version : Version 1
Format profile : Layer 3
Codec ID : 55
Codec ID/Hint : MP3
Duration : 2h 14mn
Bit rate mode : Constant
Bit rate : 192 Kbps
Channel(s) : 2 channels
Sampling rate : 44.1 KHz
Compression mode : Lossy
Stream size : 185 MiB (14%)
Alignment : Split accross interleaves
Interleave, duration : 42 ms (1.00 video frame)
Interleave, preload duration : 500 ms
Скриншот c названием фильма Скриншоты
Скачать

Скачать торрент!

Как скачивать? · Что такое торрент? · Рейтинг и ограничения

Сайт не распространяет и не хранит электронные версии произведений, а лишь предоставляет доступ к создаваемому пользователями каталогу ссылок на торрент-файлы, которые содержат только списки хеш-сумм

[Профиль] [ЛС]
Показать сообщения:    
Ответить на тему

Текущее время: Сегодня 13:41

Часовой пояс: GMT + 4



Вы не можете начинать темы
Вы не можете отвечать на сообщения
Вы не можете редактировать свои сообщения
Вы не можете удалять свои сообщения
Вы не можете голосовать в опросах
Вы не можете прикреплять файлы к сообщениям
Вы не можете скачивать файлы