Судная ночь 2 / The Purge: Anarchy (Джеймс ДеМонако / James DeMonaco) [2014, США, Франция, триллер, криминал, боевик, WEB-DLRip-AVC] Dub (iTunes)+Eng + Eng subs

Ответить на тему
 
Автор Сообщение

user ®

Стаж: 7 лет 7 месяцев

Сообщений: 20008

Пост Пост: #1 от 29-Сен-2014 08:25

[Цитировать]

Судная ночь 2 / The Purge: Anarchy Страна: США, Франция
Жанр: триллер, криминал, боевик
Год выпуска: 2014
Продолжительность: 01:43:28
Перевод: Профессиональный (дублированный)
Cубтитры: английские
Оригинальная аудиодорожка: английский
Режиссер: Джеймс ДеМонако / James DeMonaco
В ролях: Фрэнк Грилло, Кармен Эджого, Зак Гилфорд, Киле Санчес, Майкл К. Уильямс, Зои Борд, Жустина Мачадо, Джон Бизли, Джек Конли, Ноэль Гульеми...
Описание: Добро пожаловать в идеальный мир будущего, мир без преступности и войн. И только один раз в году роскошная спокойная жизнь сменяется анархией. Этой ночью дозволено все: во тьме улиц одни жаждут мести, другие ищут развлечений, остальные пытаются дожить до рассвета…
Качество видео: WEB-DLRip
Формат видео: mkv
Video : AVC 2242 Кбит/сек, 1024 x 424 23.976 fps
Audio : AC-3 384 Кбит/сек, 6 каналов, 48,0 КГц
Audio : AC-3 384 Кбит/сек, 6 каналов, 48,0 КГц
http://multi-up.com/1002353
MediaInfo
Формат : Matroska
Версия формата : Version 4 / Version 2
Размер файла : 2,18 Гбайт
Продолжительность : 1 ч. 43 м.
Общий поток : 3010 Кбит/сек
Дата кодирования : UTC 2014-09-28 16:48:00
Программа кодирования : mkvmerge v6.5.0 ('Isn't she lovely') built on Oct 20 2013 12:50:05
Библиотека кодирования : libebml v1.3.0 + libmatroska v1.4.1
Видео
Идентификатор : 1
Формат : AVC
Формат/Информация : Advanced Video Codec
Профиль формата : High@L4.1
Параметр CABAC формата : Да
Параметр ReFrames формата : 8 кадров
Идентификатор кодека : V_MPEG4/ISO/AVC
Продолжительность : 1 ч. 43 м.
Битрейт : 2242 Кбит/сек
Ширина : 1024 пикселя
Высота : 424 пикселя
Соотношение сторон : 2,40:1
Режим частоты кадров : Постоянный
Частота кадров : 23,976 кадра/сек
Цветовое пространство : YUV
Субдискретизация насыщенности : 4:2:0
Битовая глубина : 8 бит
Тип развёртки : Прогрессивная
Бит/(Пиксели*Кадры) : 0.215
Размер потока : 1,58 Гбайт (72%)
Заголовок : The Purge: Anarchy (2014) WEB-DLRip
Библиотека кодирования : x264 core 125 r2200 999b753
Настройки программы : cabac=1 / ref=8 / deblock=1:-3:-3 / analyse=0x3:0x113 / me=umh / subme=9 / psy=1 / psy_rd=1.00:0.00 / mixed_ref=1 / me_range=32 / chroma_me=1 / trellis=2 / 8x8dct=1 / cqm=0 / deadzone=21,11 / fast_pskip=0 / chroma_qp_offset=-2 / threads=6 / lookahead_threads=1 / sliced_threads=0 / nr=0 / decimate=0 / interlaced=0 / bluray_compat=0 / constrained_intra=0 / bframes=8 / b_pyramid=2 / b_adapt=2 / b_bias=0 / direct=3 / weightb=1 / open_gop=0 / weightp=2 / keyint=240 / keyint_min=23 / scenecut=40 / intra_refresh=0 / rc=2pass / mbtree=0 / bitrate=2242 / ratetol=1.0 / qcomp=0.60 / qpmin=0 / qpmax=69 / qpstep=4 / cplxblur=20.0 / qblur=0.5 / ip_ratio=1.40 / pb_ratio=1.30 / aq=1:1.10
Default : Да
Forced : Нет
Аудио #1
Идентификатор : 2
Формат : AC-3
Формат/Информация : Audio Coding 3
Расширение режима : CM (complete main)
Параметр Endianness формата : Big
Идентификатор кодека : A_AC3
Продолжительность : 1 ч. 43 м.
Вид битрейта : Постоянный
Битрейт : 384 Кбит/сек
Каналы : 6 каналов
Расположение каналов : Front: L C R, Side: L R, LFE
Частота : 48,0 КГц
Битовая глубина : 16 бит
Метод сжатия : С потерями
Размер потока : 284 Мбайт (13%)
Язык : Russian
Default : Да
Forced : Нет
Аудио #2
Идентификатор : 3
Формат : AC-3
Формат/Информация : Audio Coding 3
Расширение режима : CM (complete main)
Параметр Endianness формата : Big
Идентификатор кодека : A_AC3
Продолжительность : 1 ч. 43 м.
Вид битрейта : Постоянный
Битрейт : 384 Кбит/сек
Каналы : 6 каналов
Расположение каналов : Front: L C R, Side: L R, LFE
Частота : 48,0 КГц
Битовая глубина : 16 бит
Метод сжатия : С потерями
Размер потока : 284 Мбайт (13%)
Язык : English
Default : Нет
Forced : Нет
Текст
Идентификатор : 4
Формат : UTF-8
Идентификатор кодека : S_TEXT/UTF8
Идентификатор кодека/Информация : UTF-8 Plain Text
Язык : English
Default : Да
Forced : Нет
Меню
00:00:00.000 : en:глава 1
00:05:16.000 : en:глава 2
00:09:51.000 : en:глава 3
00:14:39.000 : en:глава 4
00:18:34.000 : en:глава 5
00:23:19.000 : en:глава 6
00:31:23.000 : en:глава 7
00:36:30.000 : en:глава 8
00:41:20.000 : en:глава 9
00:47:15.000 : en:глава 10
00:51:40.000 : en:глава 11
00:57:29.000 : en:глава 12
01:01:50.000 : en:глава 13
01:06:51.000 : en:глава 14
01:10:08.000 : en:глава 15
01:15:47.000 : en:глава 16
01:21:11.000 : en:глава 17
01:26:43.000 : en:глава 18
01:31:19.000 : en:глава 19
01:36:43.000 : en:глава 20
Скриншоты
Скачать

Скачать торрент!

Как скачивать? · Что такое торрент? · Рейтинг и ограничения

Сайт не распространяет и не хранит электронные версии произведений, а лишь предоставляет доступ к создаваемому пользователями каталогу ссылок на торрент-файлы, которые содержат только списки хеш-сумм

[Профиль] [ЛС]
Показать сообщения:    
Ответить на тему

Текущее время: Сегодня 00:24

Часовой пояс: GMT + 4



Вы не можете начинать темы
Вы не можете отвечать на сообщения
Вы не можете редактировать свои сообщения
Вы не можете удалять свои сообщения
Вы не можете голосовать в опросах
Вы не можете прикреплять файлы к сообщениям
Вы не можете скачивать файлы