Каждый вечер в одиннадцать (Самсон Самсонов) [1969, мелодрама, экранизация, SATRip-AVC]

Ответить на тему
 
Автор Сообщение

user ®

Стаж: 7 лет 7 месяцев

Сообщений: 20008

Пост Пост: #1 от 29-Сен-2014 05:15

[Цитировать]

Каждый вечер в одиннадцать
Жанр: мелодрама, экранизация
Год выпуска: 1969
Продолжительность: 01:16:25
Режиссёр: Самсон Самсонов
В ролях: Маргарита Володина, Михаил Ножкин, Лариса Виккел, Изольда Извицкая, Зоя Степанова, Михаил Бовин, Алексей Головин, Леонид Каневский, Михаил Селютин, Алла Будницкая
Описание: Как-то вечером, в кругу друзей холостяк Станислав ради развлечения позвонил по телефону наугад: номер по одной цифре назвали его друзья. Друзья поставили шуточное условие: «Если ответит женщина, ты на ней женишься». Станислав и впрямь услышал приятный, с ноткой усталости женский голос. Что-то привлекло Станислава в этом голосе, и он захотел услышать его снова, но вспомнить номер оказалось непросто. Станислав опросил всю свою компанию и заставил каждого вспоминать свою цифру...
Доп. информация: Сценарий фильма написан Эдвардом Радзинским по мотивам рассказа азербайджанского писателя Анара «Я, ты, он и телефон».


Семпл
Качество видео: SATRip-AVC [Исходник: [url=http://***/forum/viewtopic.php?t=4647421]DVB[/url] (Спасибо Cheef mate)]
Формат видео: MKV
Видео: AVC (H.264), 672x544@733x544 (4:3), 25 fps, 2488 kbps avg, 0.272 bit/pixel
Аудио: AC3, 48 kHz, 16 bits, 192 kbps, 2ch
MediaInfo
Общее
Уникальный идентификатор : 200843789921478198997527729379932959436 (0x97191B5ECEBFF157ACE31FFED2A4F2CC)
Полное имя : I:\Video\Каждый.вечер.в.одиннадцать.1969.SATRip-AVC.kvvk_2009.mkv
Формат : Matroska
Версия формата : Version 2
Размер файла : 1,43 Гбайт
Продолжительность : 1 ч. 16 м.
Общий поток : 2682 Кбит/сек
Дата кодирования : UTC 2014-09-28 09:56:26
Программа кодирования : mkvmerge v3.4.0 ('Rapunzel') built on May 15 2010 09:38:20
Библиотека кодирования : libebml v0.8.0 + libmatroska v0.9.0
Видео
Идентификатор : 1
Формат : AVC
Формат/Информация : Advanced Video Codec
Профиль формата : High@L4.1
Параметр CABAC формата : Да
Параметр ReFrames формата : 11 кадров
Идентификатор кодека : V_MPEG4/ISO/AVC
Продолжительность : 1 ч. 16 м.
Битрейт : 2488 Кбит/сек
Ширина : 672 пикселя
Высота : 544 пикселя
Соотношение сторон : 4:3
Соотношение сторон в оригинале : 4:3
Частота кадров : 25,000 кадров/сек
Цветовое пространство : YUV
Субдискретизация насыщенности : 4:2:0
Битовая глубина : 8 бит
Тип развёртки : Прогрессивная
Бит/(Пиксели*Кадры) : 0.272
Размер потока : 1,30 Гбайт (91%)
Библиотека кодирования : x264 core 142 r2431 ac76440
Настройки программы : cabac=1 / ref=11 / deblock=1:-2:-1 / analyse=0x3:0x113 / me=umh / subme=11 / psy=1 / psy_rd=1.00:0.10 / mixed_ref=1 / me_range=48 / chroma_me=1 / trellis=2 / 8x8dct=1 / cqm=0 / deadzone=21,11 / fast_pskip=0 / chroma_qp_offset=-3 / threads=6 / lookahead_threads=1 / sliced_threads=0 / nr=0 / decimate=0 / interlaced=0 / bluray_compat=0 / constrained_intra=0 / bframes=7 / b_pyramid=2 / b_adapt=2 / b_bias=0 / direct=3 / weightb=1 / open_gop=0 / weightp=2 / keyint=250 / keyint_min=25 / scenecut=40 / intra_refresh=0 / rc_lookahead=50 / rc=2pass / mbtree=0 / bitrate=2488 / ratetol=1.0 / qcomp=0.60 / qpmin=0 / qpmax=51 / qpstep=4 / cplxblur=20.0 / qblur=0.5 / vbv_maxrate=50000 / vbv_bufsize=62500 / nal_hrd=none / filler=0 / ip_ratio=1.40 / pb_ratio=1.30 / aq=1:0.90
Язык : English
Default : Нет
Forced : Нет
Аудио
Идентификатор : 2
Формат : AC-3
Формат/Информация : Audio Coding 3
Расширение режима : CM (complete main)
Идентификатор кодека : A_AC3
Продолжительность : 1 ч. 16 м.
Вид битрейта : Постоянный
Битрейт : 192 Кбит/сек
Каналы : 2 канала
Расположение каналов : Front: L R
Частота : 48,0 КГц
Битовая глубина : 16 бит
Метод сжатия : С потерями
Размер потока : 105 Мбайт (7%)
Заголовок : AC3 2ch @ 192kbps
Язык : Russian
Default : Да
Forced : Нет
Скриншот c названием фильма Скриншоты
Скачать

Скачать торрент!

Как скачивать? · Что такое торрент? · Рейтинг и ограничения

Сайт не распространяет и не хранит электронные версии произведений, а лишь предоставляет доступ к создаваемому пользователями каталогу ссылок на торрент-файлы, которые содержат только списки хеш-сумм

[Профиль] [ЛС]
Показать сообщения:    
Ответить на тему

Текущее время: Сегодня 00:29

Часовой пояс: GMT + 4



Вы не можете начинать темы
Вы не можете отвечать на сообщения
Вы не можете редактировать свои сообщения
Вы не можете удалять свои сообщения
Вы не можете голосовать в опросах
Вы не можете прикреплять файлы к сообщениям
Вы не можете скачивать файлы