Город грехов 2: Женщина, ради которой стоит убивать / Sin City: A Dame to Kill For (Роберт Родригес / Robert Rodriguez, Фрэнк Миллер / Frank Miller) [2014, США, Боевик, триллер, криминал, BDRip-AVC] Dub [Лицензия BD RUS]

Ответить на тему
 
Автор Сообщение

user ®

Стаж: 7 лет 7 месяцев

Сообщений: 20008

Пост Пост: #1 от 29-Сен-2014 05:15

[Цитировать]

Город грехов 2: Женщина, ради которой стоит убиватьSin City: A Dame to Kill For«There is no justice without sin»
Страна: США
Жанр: Боевик, триллер, криминал
Год выпуска: 2014
Продолжительность: 01:42:46
Перевод: Профессиональный (дублированный) [Лицензия BD CFE]
Cубтитры: нет
Оригинальная аудиодорожка: нет
Режиссер: Роберт Родригес / Robert Rodriguez, Фрэнк Миллер / Frank Miller
В ролях: Микки Рурк, Джессика Альба, Джош Бролин, Джозеф Гордон-Левитт, Розарио Доусон, Брюс Уиллис, Ева Грин, Пауэрс Бут, Деннис Хейсбёрт, Рэй Лиотта
Описание: В темных переулках Города Грехов Дуайт планирует жестоко отомстить женщине по имени Ава Лорд, которая его предала, в то время как Нэнси пытается смириться со смертью детектива Хартигана.
Доп. информация:

Автор рипа: IVAN@190282
Качество видео: BDRip-AVC |Город грехов 2: Женщина, ради которой стоит убивать / Sin City: A Dame to Kill For (2014) 1080p Blu-ray RUS| HD club
Формат видео: MKV
Видео: 1132x612 (1,85:1), 24.00 fps, 2603 Кbps, 0.157 bit/pixe
Аудио: 48 kHz, AC3 Dolby Digital, 3/2 (L,C,R,l,r) + LFE ch, 448.00 kbps |DUB
MediaInfo
General
Unique ID : 234976954800626624519389723376647554812 (0xB0C6EA5452536D9F82DD7CFAD57A46FC)
Complete name : E:\Мои рипы\Город грехов\Город грехов 2.Женщина, ради которой стоит убивать by_IVAN@190282.mkv
Format : Matroska
Format version : Version 4 / Version 2
File size : 2.19 GiB
Duration : 1h 42mn
Overall bit rate : 3 052 Kbps
Encoded date : UTC 2014-09-28 16:35:30
Writing application : mkvmerge v7.0.0 ('Where We Going') 64bit built on Jun 9 2014 15:16:27
Writing library : libebml v1.3.0 + libmatroska v1.4.1
DURATION : 01:42:45.984000000
NUMBER_OF_FRAMES : 192687
NUMBER_OF_BYTES : 345295104
_STATISTICS_WRITING_APP : mkvmerge v7.0.0 ('Where We Going') 64bit built on Jun 9 2014 15:16:27
_STATISTICS_WRITING_DATE_UTC : 2014-09-28 16:35:30
_STATISTICS_TAGS : BPS DURATION NUMBER_OF_FRAMES NUMBER_OF_BYTES
Video
ID : 1
Format : AVC
Format/Info : Advanced Video Codec
Format profile : High@L4.1
Format settings, CABAC : Yes
Format settings, ReFrames : 13 frames
Codec ID : V_MPEG4/ISO/AVC
Duration : 1h 42mn
Bit rate : 2 603 Kbps
Width : 1 132 pixels
Height : 612 pixels
Display aspect ratio : 1.85:1
Frame rate mode : Constant
Frame rate : 24.000 fps
Color space : YUV
Chroma subsampling : 4:2:0
Bit depth : 8 bits
Scan type : Progressive
Bits/(Pixel*Frame) : 0.157
Stream size : 1.83 GiB (83%)
Writing library : x264 core 142 r2479kMod dd79a61
Encoding settings : cabac=1 / ref=13 / deblock=1:-3:-2 / analyse=0x3:0x113 / me=umh / subme=11 / psy=1 / fade_compensate=0.00 / psy_rd=1.00:0.15 / mixed_ref=1 / me_range=48 / chroma_me=1 / trellis=2 / 8x8dct=1 / cqm=0 / deadzone=21,11 / fast_pskip=0 / chroma_qp_offset=0 / threads=6 / lookahead_threads=6 / sliced_threads=0 / slices=10 / nr=0 / decimate=1 / interlaced=0 / bluray_compat=0 / constrained_intra=0 / fgo=0 / bframes=16 / b_pyramid=2 / b_adapt=2 / b_bias=0 / direct=3 / weightb=1 / open_gop=1 / weightp=2 / keyint=240 / keyint_min=23 / scenecut=40 / intra_refresh=0 / rc_lookahead=40 / rc=2pass / mbtree=0 / bitrate=2603 / ratetol=1.0 / qcomp=0.60 / qpmin=0 / qpmax=69 / qpstep=4 / cplxblur=20.0 / qblur=0.5 / vbv_maxrate=50000 / vbv_bufsize=62500 / nal_hrd=none / filler=0 / ip_ratio=1.40 / pb_ratio=1.30 / aq=1:1.00
Default : Yes
Forced : No
Color primaries : BT.709
Transfer characteristics : BT.709
Matrix coefficients : BT.709
Audio
ID : 2
Format : AC-3
Format/Info : Audio Coding 3
Mode extension : CM (complete main)
Format settings, Endianness : Big
Codec ID : A_AC3
Duration : 1h 42mn
Bit rate mode : Constant
Bit rate : 448 Kbps
Channel(s) : 6 channels
Channel positions : Front: L C R, Side: L R, LFE
Sampling rate : 48.0 KHz
Bit depth : 16 bits
Compression mode : Lossy
Stream size : 329 MiB (15%)
Default : Yes
Forced : No
x264 log
x264 [info]: frame I:1516 Avg QP:15.36 size: 87266
x264 [info]: frame P:42197 Avg QP:18.39 size: 23906
x264 [info]: frame B:104270 Avg QP:20.77 size: 8282
x264 [info]: consecutive B-frames: 5.5% 8.6% 13.6% 35.4% 14.7% 17.0% 2.1% 1.0% 0.5% 0.3% 0.2% 0.1% 0.1% 0.1% 0.1% 0.1% 0.5%
x264 [info]: kb/s:2600.91
x264 [total]: encoded 147983 frames, 2.94 fps, 2600.91 kb/s, duration 13:59:01.12
Скриншот c названием фильма Скриншоты
Скачать

Скачать торрент!

Как скачивать? · Что такое торрент? · Рейтинг и ограничения

Сайт не распространяет и не хранит электронные версии произведений, а лишь предоставляет доступ к создаваемому пользователями каталогу ссылок на торрент-файлы, которые содержат только списки хеш-сумм

[Профиль] [ЛС]
Показать сообщения:    
Ответить на тему

Текущее время: Сегодня 23:52

Часовой пояс: GMT + 4



Вы не можете начинать темы
Вы не можете отвечать на сообщения
Вы не можете редактировать свои сообщения
Вы не можете удалять свои сообщения
Вы не можете голосовать в опросах
Вы не можете прикреплять файлы к сообщениям
Вы не можете скачивать файлы