Старшая жена (Иван Соловов) [2008, драма, HDTVRip]

Ответить на тему
 
Автор Сообщение

user ®

Стаж: 7 лет 7 месяцев

Сообщений: 20008

Пост Пост: #1 от 28-Сен-2014 21:00

[Цитировать]

Старшая жена
Жанр: драма
Год выпуска: 2008
Продолжительность: 01:30:09
Режиссёр: Иван Соловов
В ролях: Ирина Розанова, Андрей Панин, Александр Домогаров, Лидия Вележева, Бениха Эгути, Иван Шабалтас, Александр Баширов, Зоя Хоихалджинова, Марат Башаров, Михаил Богдасаров, Ольга Надбитова
Описание: В калмыцком ауле живет простая семья - Баира и ее муж Съезд. Они любят друг друга, вместе стригут и продают баранов, ведут хозяйство, никогда не расстаются и другой жизни не знают. И вдруг Съезд приводит в дом вторую жену - обещал соседке перед смертью жениться на ее внучке. Внучка - молодая красавица, да еще и беременная. Баира с отчаянием смотрит на себя в зеркало - ей 40 лет... Почувствовав себя лишней, Баира покидает родной аул и идет, куда глаза глядят - в город. А там совсем другая жизнь, по другим законам. Город полон сюрпризов, разочарований и жестокости. Баира будет и в эйфории от счастья и на волоске от смерти. Баира даже почувствует себя Золушкой - ее полюбит сказочный принц. Но... старшая жена пришла в город не просто так. Ее цель - найти средство, чтобы жестоко отомстить мужу... Что это за средство и к чему оно приведет - расскажет фильм.
Сэмпл: http://multi-up.com/1002311
Качество видео: HDTVRip
Формат видео: AVI
Видео: 720x304 (2.37:1), 25 fps, XviD build 73 ~2115 kbps avg, 0.39 bit/pixel
Аудио: 48 kHz, MPEG Layer 3, 2 ch, ~192.00 kbps avg
MediaInfo
Format : AVI
Format/Info : Audio Video Interleave
File size : 1.46 GiB
Duration : 1h 30mn
Overall bit rate : 2 318 Kbps
Writing application : VirtualDubMod 1.5.10.3 | www.virtualdub-fr.org || (build 2550/release)
Writing library : VirtualDubMod build 2550/release
Video
ID : 0
Format : MPEG-4 Visual
Format profile : Advanced Simple@L5
Format settings, BVOP : 2
Format settings, QPel : No
Format settings, GMC : No warppoints
Format settings, Matrix : Custom
Codec ID : XVID
Codec ID/Hint : XviD
Duration : 1h 30mn
Bit rate : 2 116 Kbps
Width : 720 pixels
Height : 304 pixels
Display aspect ratio : 2.35:1
Frame rate : 25.000 fps
Color space : YUV
Chroma subsampling : 4:2:0
Bit depth : 8 bits
Scan type : Progressive
Compression mode : Lossy
Bits/(Pixel*Frame) : 0.387
Stream size : 1.33 GiB (91%)
Writing library : XviD 73
Audio
ID : 1
Format : MPEG Audio
Format version : Version 1
Format profile : Layer 3
Mode : Joint stereo
Codec ID : 55
Codec ID/Hint : MP3
Duration : 1h 30mn
Bit rate mode : Constant
Bit rate : 192 Kbps
Channel(s) : 2 channels
Sampling rate : 48.0 KHz
Compression mode : Lossy
Stream size : 124 MiB (8%)
Alignment : Aligned on interleaves
Interleave, duration : 40 ms (1.00 video frame)
Interleave, preload duration : 504 ms
Writing library : LAME3.99r
Encoding settings : -m j -V 4 -q 2 -lowpass 18.6 -b 192
Скриншоты
Скачать

Скачать торрент!

Как скачивать? · Что такое торрент? · Рейтинг и ограничения

Сайт не распространяет и не хранит электронные версии произведений, а лишь предоставляет доступ к создаваемому пользователями каталогу ссылок на торрент-файлы, которые содержат только списки хеш-сумм

[Профиль] [ЛС]
Показать сообщения:    
Ответить на тему

Текущее время: Сегодня 22:29

Часовой пояс: GMT + 4



Вы не можете начинать темы
Вы не можете отвечать на сообщения
Вы не можете редактировать свои сообщения
Вы не можете удалять свои сообщения
Вы не можете голосовать в опросах
Вы не можете прикреплять файлы к сообщениям
Вы не можете скачивать файлы