Дикие псы / Wild Dogs (Ха Вон-Чжун / Ha Won-Joon) [2014, Южная Корея, драма, триллер, криминал, DVDRip] VO

Ответить на тему
 
Автор Сообщение

user ®

Стаж: 13 лет

Сообщений: 15071

Пост Пост: #1 от 27-Сен-2014 22:05

[Цитировать]

Дикие псы / Wild Dogs

Страна: Южная Корея
Жанр: драма, триллер, криминал
Год выпуска: 2014
Продолжительность: 01:38:42
Перевод: одноголосный закадровый
Cубтитры: нет
Оригинальная аудиодорожка: нет
Режиссер: Ха Вон-Чжун / Ha Won-Joon
В ролях: Ким Чжон-Хун, Мён Гйе-Нам,
Чха Чжи-Хун, Ким Чжун-Сук
Описание:
Сюжет об удаленном селении, в котором творятся темные и жуткие дела, о том, как герой попадает туда, куда попадать не следовало! - в деревушку, которая живет по своим законам: круговая порука, вседозволенность, прикрытая какой-никакой местной властью, полное отсутствие понятий о том, что нормально и что преступно.
Открывающаяся герою правда, холодит душу: и ему и зрителю!
Уйти, сделав вид, что ничего не знаешь или вмешаться, по сути, остаться человеком или стать подобно этим жителям "диким псом"! Определенный нравственный, моральный выбор.
Доп. информация:
Премьера фильма:23 января 2014
Возрастное ограничение: 16+
Трейлер
Сэмпл: https://yadi.sk/i/DeAXmQIybdAdu
Качество видео: DVDRip
Формат видео: AVI
Видео: XviD, 1927 Кбит/с, 720x400
Аудио: AC3, 2 ch, 192 Кбит/с
MediaInfo
Общее
Полное имя : C:\Users\User\Downloads\Wild.Dogs.DVDRip.1500mb.avi
Формат : AVI
Формат/Информация : Audio Video Interleave
Размер файла : 1,47 Гбайт
Продолжительность : 1 ч. 38 м.
Общий поток : 2131 Кбит/сек
Программа кодирования : VirtualDubMod 1.5.10.3 | www.virtualdub-fr.org || (build 2550/release)
Библиотека кодирования : VirtualDubMod build 2550/release
Видео
Идентификатор : 0
Формат : MPEG-4 Visual
Профиль формата : Advanced Simple@L5
Параметр BVOP формата : 1
Параметр QPel формата : Нет
Параметр GMC формата : Без точки перехода
Параметр матрицы формата : Default (MPEG)
Идентификатор кодека : DX50
Идентификатор кодека/Подсказка : DivX 5
Продолжительность : 1 ч. 38 м.
Битрейт : 1927 Кбит/сек
Ширина : 720 пикселей
Высота : 400 пикселей
Соотношение сторон : 16:9
Частота кадров : 29,970 кадров/сек
Цветовое пространство : YUV
Субдискретизация насыщенности : 4:2:0
Битовая глубина : 8 бит
Тип развёртки : Прогрессивная
Метод сжатия : С потерями
Бит/(Пиксели*Кадры) : 0.223
Размер потока : 1,33 Гбайт (90%)
Библиотека кодирования : XviD 1.2.1 (UTC 2008-12-04)
Аудио
Идентификатор : 1
Формат : AC-3
Формат/Информация : Audio Coding 3
Расширение режима : CM (complete main)
Параметр Endianness формата : Big
Идентификатор кодека : 2000
Продолжительность : 1 ч. 38 м.
Вид битрейта : Постоянный
Битрейт : 192 Кбит/сек
Каналы : 2 канала
Расположение каналов : Front: L R
Частота : 48,0 КГц
Битовая глубина : 16 бит
Метод сжатия : С потерями
Размер потока : 136 Мбайт (9%)
Выравнивание : Разделение по промежуткам
Продолжительность промежутка : 33 мс. (1,00 видеокадр)
Время предзагрузки промежутка : 500 мс.
Скриншот c названием фильма Скриншоты
Скачать

Скачать торрент! Дикие псы / Wild Dogs (Ха Вон-Чжун / Ha Won-Joon) [2014, Южная Корея, драма, триллер, криминал, DVDRip] VO

Как скачивать? · Что такое торрент? · Рейтинг и ограничения

Сайт не распространяет и не хранит электронные версии произведений, а лишь предоставляет доступ к создаваемому пользователями каталогу ссылок на торрент-файлы, которые содержат только списки хеш-сумм

[Профиль] [ЛС]
Показать сообщения:    
Ответить на тему

Текущее время: Сегодня 16:57

Часовой пояс: GMT + 4



Вы не можете начинать темы
Вы не можете отвечать на сообщения
Вы не можете редактировать свои сообщения
Вы не можете удалять свои сообщения
Вы не можете голосовать в опросах
Вы не можете прикреплять файлы к сообщениям
Вы не можете скачивать файлы