Посвященный / The Giver (Филлип Нойс / Phillip Noyce) [2014, США, фантастика, WEB-DL 720p] Dub (iTunes)

Ответить на тему
 
Автор Сообщение

user ®

Стаж: 7 лет 7 месяцев

Сообщений: 20008

Пост Пост: #1 от 27-Сен-2014 22:05

[Цитировать]

Посвященный / The Giver
Страна: США
Жанр: фантастика
Год выпуска: 2014
Продолжительность: 01:37:23
Перевод: Профессиональный (дублированный) iTunes
Cубтитры: нет
Оригинальная аудиодорожка: нет
Режиссер: Филлип Нойс / Phillip Noyce
В ролях: Брентон Туэйтс, Мэрил Стрип, Джефф Бриджес, Александр Скарсгард, Кэти Холмс, Тейлор Свифт, Камерон Монахэн, Одейя Раш, Эмма Трамбле, Катарина Дэмм
Описание: Юный Джонас живет в идеальном, максимально цивилизованном обществе будущего, где больше нет войн, боли, страданий, радости, воспоминаний. Для каждого члена здесь определен идеальный порядок существования, и теперь никому не приходится выбирать шаг, мысль, цвет — все вокруг однозначно серое… По решению Совета общества Джонас назначается Хранителем памяти, которую он должен перенять у Учителя по имени Дающий. Юноше открывается правда о настоящем мире, но чтобы освободить свой мир, он должен бросить ему вызов…
Сэмпл: http://sendfile.su/1027397
Тип релиза: WEB-DL 720p
Контейнер: MKV
Видео: AVC, 1280x540 (2.35:1), 24.000 fps, 3 598 Kbps (0.217 bit/pixel)
Аудио: AC-3, 48.0 KHz, 6 ch, 384 Kbps
MediaInfo
Format : Matroska
Format version : Version 4 / Version 2
File size : 2.76 GiB
Duration : 1h 37mn
Overall bit rate : 4 063 Kbps
Encoded date : UTC 2014-09-22 19:20:14
Writing application : mkvmerge v6.9.1 ('Blue Panther') 64bit built on Apr 18 2014 18:23:38
Writing library : libebml v1.3.0 + libmatroska v1.4.1
Video
ID : 1
Format : AVC
Format/Info : Advanced Video Codec
Format profile : Main@L3.1
Format settings, CABAC : No
Format settings, ReFrames : 2 frames
Codec ID : V_MPEG4/ISO/AVC
Duration : 1h 37mn
Bit rate : 3 598 Kbps
Width : 1 280 pixels
Height : 540 pixels
Display aspect ratio : 2.40:1
Frame rate mode : Constant
Frame rate : 24.000 fps
Color space : YUV
Chroma subsampling : 4:2:0
Bit depth : 8 bits
Scan type : Progressive
Bits/(Pixel*Frame) : 0.217
Stream size : 2.44 GiB (89%)
Language : English
Default : Yes
Forced : No
Color primaries : BT.709
Transfer characteristics : BT.709
Matrix coefficients : BT.709
Audio
ID : 2
Format : AC-3
Format/Info : Audio Coding 3
Mode extension : CM (complete main)
Format settings, Endianness : Big
Codec ID : A_AC3
Duration : 1h 37mn
Bit rate mode : Constant
Bit rate : 384 Kbps
Channel(s) : 6 channels
Channel positions : Front: L C R, Side: L R, LFE
Sampling rate : 48.0 KHz
Bit depth : 16 bits
Compression mode : Lossy
Stream size : 267 MiB (9%)
Language : Russian
Default : Yes
Forced : No
Скриншоты
Скачать

Скачать торрент!

Как скачивать? · Что такое торрент? · Рейтинг и ограничения

Сайт не распространяет и не хранит электронные версии произведений, а лишь предоставляет доступ к создаваемому пользователями каталогу ссылок на торрент-файлы, которые содержат только списки хеш-сумм

[Профиль] [ЛС]
Показать сообщения:    
Ответить на тему

Текущее время: Сегодня 21:52

Часовой пояс: GMT + 4



Вы не можете начинать темы
Вы не можете отвечать на сообщения
Вы не можете редактировать свои сообщения
Вы не можете удалять свои сообщения
Вы не можете голосовать в опросах
Вы не можете прикреплять файлы к сообщениям
Вы не можете скачивать файлы