Судная ночь 2 / The Purge: Anarchy (Джеймс ДеМонако / James DeMonaco) [2014, США, Франция, триллер, криминал, боевик, WEB-DL 720p] Dub (iTunes Russia)

Ответить на тему
 
Автор Сообщение

user ®

Стаж: 7 лет 7 месяцев

Сообщений: 20008

Пост Пост: #1 от 27-Сен-2014 22:05

[Цитировать]

Судная ночь 2 / The Purge: Anarchy
Страна: США, Франция
Студия: Blumhouse Productions, Platinum Dunes, Universal Pictures
Жанр: триллер, криминал, боевик
Год выпуска: 2014
Продолжительность: 01:43:28
Перевод: Профессиональный (дублированный) - iTunes Russia
Cубтитры: нет
Оригинальная аудиодорожка: нет
Режиссер: Джеймс ДеМонако / James DeMonaco
В ролях: Фрэнк Грилло, Кармен Эджого, Зак Гилфорд, Киле Санчес, Майкл К. Уильямс, Зои Борд, Жустина Мачадо, Джон Бизли, Джек Конли, Ноэль Гульеми
Описание: Добро пожаловать в идеальный мир будущего, мир без преступности и войн. И только один раз в году роскошная спокойная жизнь сменяется анархией. Этой ночью дозволено все: во тьме улиц одни жаждут мести, другие ищут развлечений, остальные пытаются дожить до рассвета...
Релиз: by sergey_n
Сэмпл: http://multi-up.com/1001588
Тип релиза: WEB-DL 720p
Контейнер: MKV
Видео: 1280x532 at 23.976 fps, MPEG-4 AVC, ~4000 kbps avg
Аудио: Russian: 48 kHz, AC3, 3/2 (L,C,R,l,r) + LFE ch, ~384.00 kbps avg |Дубляж, iTunes Russia|

MediaInfo
General
Unique ID : 234245845698388392437133169077055195101 (0xB03A1BDE1C3AE9CBB75025DB63A507DD)
Complete name : D:\Видео\Movies\The.Purge.Anarchy.2014.720p.WEB-DL.Rus.HDCLUB.mkv
Format : Matroska
Format version : Version 2
File size : 3.18 GiB
Duration : 1h 43mn
Overall bit rate : 4 406 Kbps
Movie name : The Purge: Anarchy (2014) - Release for HDCLUB
Encoded date : UTC 2014-09-25 11:52:02
Writing application : mkvmerge v3.4.0 ('Rapunzel') built on May 15 2010 09:38:20
Writing library : libebml v0.8.0 + libmatroska v0.9.0
Video
ID : 1
Format : AVC
Format/Info : Advanced Video Codec
Format profile : Main@L3.1
Format settings, CABAC : No
Format settings, ReFrames : 2 frames
Codec ID : V_MPEG4/ISO/AVC
Duration : 1h 43mn
Bit rate : 3 934 Kbps
Width : 1 280 pixels
Height : 532 pixels
Display aspect ratio : 2.40:1
Frame rate mode : Constant
Frame rate : 23.976 fps
Color space : YUV
Chroma subsampling : 4:2:0
Bit depth : 8 bits
Scan type : Progressive
Bits/(Pixel*Frame) : 0.241
Stream size : 2.84 GiB (89%)
Title : The Purge: Anarchy (2014) - Release for HDCLUB
Language : English
Default : Yes
Forced : No
Color primaries : BT.709
Transfer characteristics : BT.709
Matrix coefficients : BT.709
Audio
ID : 2
Format : AC-3
Format/Info : Audio Coding 3
Mode extension : CM (complete main)
Format settings, Endianness : Big
Codec ID : A_AC3
Duration : 1h 43mn
Bit rate mode : Constant
Bit rate : 384 Kbps
Channel count : 6 channels
Channel positions : Front: L C R, Side: L R, LFE
Sampling rate : 48.0 KHz
Bit depth : 16 bits
Compression mode : Lossy
Stream size : 284 MiB (9%)
Title : AC3 5.1 @ 384 kbps - DUB, iTunes
Language : Russian
Default : Yes
Forced : No
Menu
00:00:00.000 : en:глава 1
00:05:16.000 : en:глава 2
00:09:51.000 : en:глава 3
00:14:39.000 : en:глава 4
00:18:34.000 : en:глава 5
00:23:19.000 : en:глава 6
00:31:23.000 : en:глава 7
00:36:30.000 : en:глава 8
00:41:20.000 : en:глава 9
00:47:15.000 : en:глава 10
00:51:40.000 : en:глава 11
00:57:29.000 : en:глава 12
01:01:50.000 : en:глава 13
01:06:51.000 : en:глава 14
01:10:08.000 : en:глава 15
01:15:47.000 : en:глава 16
01:21:11.000 : en:глава 17
01:26:43.000 : en:глава 18
01:31:19.000 : en:глава 19
01:36:43.000 : en:глава 20
Скриншоты
Скачать

Скачать торрент!

Как скачивать? · Что такое торрент? · Рейтинг и ограничения

Сайт не распространяет и не хранит электронные версии произведений, а лишь предоставляет доступ к создаваемому пользователями каталогу ссылок на торрент-файлы, которые содержат только списки хеш-сумм

[Профиль] [ЛС]
Показать сообщения:    
Ответить на тему

Текущее время: Сегодня 08:06

Часовой пояс: GMT + 4



Вы не можете начинать темы
Вы не можете отвечать на сообщения
Вы не можете редактировать свои сообщения
Вы не можете удалять свои сообщения
Вы не можете голосовать в опросах
Вы не можете прикреплять файлы к сообщениям
Вы не можете скачивать файлы